La Mujer y El Monstruo 3D SBS [1080p]AC3/DTS[Es-Esp]DTS[En-US][Sub][Terror][1954]


Ficha Técnica
TÍTULO ORIGINAL Creature from the Black Lagoon
AÑO 1954
DURACIÓN 79 min.
PAÍS USA
DIRECTOR Jack Arnold
GUIÓN Harry Essex & Arthur A. Ross
MÚSICA Joseph Gershenson
FOTOGRAFÍA William Snyder (B&W)
REPARTO Richard Carlson, Julia Adams, Richard Denning, Antonio Moreno, Whit Bissell, Nestor Paiva, Ricou Browning
PRODUCTORA Universal Pictures
GÉNERO Ciencia ficción. Terror. Aventuras | Monstruos. Serie B. 3-D

Sinopsis
La típica historia de terror de serie B -una expedición científica de exploración en el amazonas que se encuentran con un ser monstruoso- le sirve a Jack Arnold, gracias a su acertada atomósfera y ambientación, para conseguir un clásico del género.

Datos Técnicos
código:
::::...CadagotoHD...::::Solo Aportes Exclusivos !
General
Complete name                    : C:\CadagotoHD\La Mujer y El Monstruo 3D SBS BDRip 1080p Dual CadagotoHD.Com\La Mujer y El Monstruo 3D SBS BDRip 1080p Dual CadagotoHD.mkv
Format                           : Matroska
Format version                   : Version 2
File size                        : 11.5 GiB
Duration                         : 1h 19mn
Overall bit rate mode            : Variable
Overall bit rate                 : 20.7 Mbps
Movie name                       : :::....CadagotoHD....::: * Aportes Exclusivos*
Encoded date                     : UTC 2012-10-28 01:05:29
Writing application              : mkvmerge v4.4.0 ('Die Wiederkehr') built on Oct 31 2010 21:52:48
Writing library                  : libebml v1.0.0 + libmatroska v1.0.0

Video
ID                               : 1
Format                           : AVC
Format/Info                      : Advanced Video Codec
Format profile                   : High@L4.1
Format settings, CABAC           : Yes
Format settings, ReFrames        : 2 frames
Muxing mode                      : Header stripping
Codec ID                         : V_MPEG4/ISO/AVC
Duration                         : 1h 19mn
Bit rate                         : 17.8 Mbps
Width                            : 1 920 pixels
Height                           : 1 080 pixels
Display aspect ratio             : 16:9
Frame rate                       : 23.976 fps
Color space                      : YUV
Chroma subsampling               : 4:2:0
Bit depth                        : 8 bits
Scan type                        : Progressive
Bits/(Pixel*Frame)               : 0.359
Stream size                      : 9.88 GiB (86%)
Title                            : :::....CadagotoHD....::: * Aportes Exclusivos*
Writing library                  : x264 core
Language                         : Spanish
Default                          : Yes
Forced                           : No
Color primaries                  : BT.709-5, BT.1361, IEC 61966-2-4, SMPTE RP177
Transfer characteristics         : BT.709-5, BT.1361
Matrix coefficients              : BT.709-5, BT.1361, IEC 61966-2-4 709, SMPTE RP177

Audio #1
ID                               : 2
Format                           : DTS
Format/Info                      : Digital Theater Systems
Muxing mode                      : Header stripping
Codec ID                         : A_DTS
Duration                         : 1h 19mn
Bit rate mode                    : Constant
Bit rate                         : 448 Kbps
Channel(s)                       : 2 channels
Channel positions                : Front: L R
Sampling rate                    : 48.0 KHz
Bit depth                        : 24 bits
Compression mode                 : Lossy
Delay relative to video          : 11ms
Stream size                      : 254 MiB (2%)
Title                            : :::....CadagotoHD....::: Castellano DTS
Language                         : Spanish
Default                          : Yes
Forced                           : Yes

Audio #2
ID                               : 3
Format                           : DTS
Format/Info                      : Digital Theater Systems
Format profile                   : MA / Core
Muxing mode                      : Header stripping
Codec ID                         : A_DTS
Duration                         : 1h 19mn
Bit rate mode                    : Variable
Bit rate                         : 1 558 Kbps / 1 510 Kbps
Channel(s)                       : 2 channels
Channel positions                : Front: L R
Sampling rate                    : 48.0 KHz
Bit depth                        : 24 bits
Compression mode                 : Lossless / Lossy
Title                            : :::...www.CadagotoHD.Com...::: Ingles DTS
Language                         : English
Default                          : No
Forced                           : No

Audio #3
ID                               : 4
Format                           : AC-3
Format/Info                      : Audio Coding 3
Mode extension                   : CM (complete main)
Muxing mode                      : Header stripping
Codec ID                         : A_AC3
Duration                         : 1h 19mn
Bit rate mode                    : Constant
Bit rate                         : 448 Kbps
Channel(s)                       : 2 channels
Channel positions                : Front: L R
Sampling rate                    : 48.0 KHz
Bit depth                        : 16 bits
Compression mode                 : Lossy
Stream size                      : 254 MiB (2%)
Title                            : :::....CadagotoHD....::: Castellano AC3 5.1
Language                         : Spanish
Default                          : No
Forced                           : No

Text #1
ID                               : 5
Format                           : VobSub
Muxing mode                      : zlib
Codec ID                         : S_VOBSUB
Codec ID/Info                    : The same subtitle format used on DVDs
Title                            : Forzados
Language                         : Spanish
Default                          : Yes
Forced                           : Yes

Text #2
ID                               : 6
Format                           : VobSub
Muxing mode                      : zlib
Codec ID                         : S_VOBSUB
Codec ID/Info                    : The same subtitle format used on DVDs
Language                         : Spanish
Default                          : No
Forced                           : No

Menu
00:00:00.000                     : en:00:00:00.000
00:01:10.821                     : en:00:01:10.821
00:04:07.038                     : en:00:04:07.038
00:10:26.918                     : en:00:10:26.918
00:15:50.908                     : en:00:15:50.908
00:20:19.969                     : en:00:20:19.969
00:27:55.966                     : en:00:27:55.966
00:32:21.481                     : en:00:32:21.481
00:34:11.508                     : en:00:34:11.508
00:43:01.287                     : en:00:43:01.287
00:47:04.280                     : en:00:47:04.280
00:51:21.412                     : en:00:51:21.412
00:52:21.472                     : en:00:52:21.472
00:55:31.286                     : en:00:55:31.286
00:58:55.991                     : en:00:58:55.991
01:14:17.411                     : en:01:14:17.411
01:16:49.188                     : en:01:16:49.188
01:18:45.012                     : en:01:18:45.012
::::...CadagotoHD...::::Aportes únicos En La Web!













Links De 500 Mb!
(Abrir el link en tu Navegador, Eperar 8 Segundos Y Pulsar AQUI)

(Luego tendrás opcion de descargar DLC O Cargar Enlaces con Jdowload Abierto)
¡Descargar AQUI!
Opcion 1
[Solo usuarios registrados a DowntWarez.Com puede ver los links. ]


Opcion2
[Solo usuarios registrados a DowntWarez.Com puede ver los links. ]






Deseas Peliculas 720p - 1080p - 3D SBS - BluRay BD25 En Español Latino?

¡Solo Tienes Que Seguirme ... CadagotoHD Siempre Lo Mejor en HD De La Web!