Dark Shadows (2012)
BDRip | 720p | MKV | 5.15 GB | Audio: Inglés | Subtítulos: Español | Comedia | 2012




TÍTULO ORIGINAL: Dark Shadows
AÑO: 2012
DURACIÓN: 113 min.
PAÍS: USA
DIRECTOR: Tim Burton
GUIÓN: Seth Grahame-Smith (Personajes: Dan Curtis)
MÚSICA: Danny Elfman
FOTOGRAFÍA: Bruno Delbonnel
REPARTO: Johnny Depp, Michelle Pfeiffer, Helena Bonham Carter, Eva Green, Jackie Earle Haley, Jonny Lee Miller, Chloë Grace Moretz, Bella Heathcote, Gulliver McGrath, Christopher Lee, Ray Shirley, Alice Cooper
PRODUCTORA: Dan Curtis Productions / GK Films / Infinitum Nihil Production / Warner Bros. Pictures
GÉNERO: Comedia. Terror. Fantástico | Comedia de terror. Vampiros. Familia. Años 70


NFO:
código:
General
Complete name                    : Dark.Shadows.2012.720p.BluRay.x264.DTS-HDChina.mkv
Format                           : Matroska
File size                        : 5.15 GiB
Duration                         : 1h 53mn
Overall bit rate                 : 6 523 Kbps
Encoded date                     : UTC 2012-09-01 17:27:30
Writing application              : mkvmerge v5.3.0 ('I could have danced') built on Feb  9 2012 10:38:07
Writing library                  : libebml v1.2.3 + libmatroska v1.3.0

Video
ID                               : 1
Format                           : AVC
Format/Info                      : Advanced Video Codec
Format profile                   : High@L4.1
Format settings, CABAC           : Yes
Format settings, ReFrames        : 9 frames
Codec ID                         : V_MPEG4/ISO/AVC
Duration                         : 1h 53mn
Bit rate                         : 5 000 Kbps
Width                            : 1 280 pixels
Height                           : 720 pixels
Display aspect ratio             : 16:9
Frame rate                       : 23.976 fps
Color space                      : YUV
Chroma subsampling               : 4:2:0
Bit depth                        : 8 bits
Scan type                        : Progressive
Bits/(Pixel*Frame)               : 0.226
Stream size                      : 3.86 GiB (75%)
Writing library                  : x264 core 125 r2208 d9d2288
Language                         : English

Audio
ID                               : 2
Format                           : DTS
Format/Info                      : Digital Theater Systems
Codec ID                         : A_DTS
Duration                         : 1h 53mn
Bit rate mode                    : Constant
Bit rate                         : 1 510 Kbps
Channel(s)                       : 6 channels
Channel positions                : Front: L C R, Side: L R, LFE
Sampling rate                    : 48.0 KHz
Bit depth                        : 16 bits
Compression mode                 : Lossy
Stream size                      : 1.19 GiB (23%)
Language                         : English

Text
ID                               : 3
Format                           : PGS
Muxing mode                      : zlib
Codec ID                         : S_HDMV/PGS
Codec ID/Info                    : The same subtitle format used on BDs/HD-DVDs
Language                         : English

Menu
00:00:00.000                     : en:00:00:00.000
00:12:25.203                     : en:00:12:25.203
00:19:57.780                     : en:00:19:57.780
00:30:21.486                     : en:00:30:21.486
00:38:55.041                     : en:00:38:55.041
00:49:48.235                     : en:00:49:48.235
01:00:11.066                     : en:01:00:11.066
01:09:47.392                     : en:01:09:47.392
01:19:36.772                     : en:01:19:36.772
01:29:05.340                     : en:01:29:05.340
01:39:36.888                     : en:01:39:36.888
01:48:26.041                     : en:01:48:26.041



En 1752, los Collins y su hijo Barnabas zarpan de Liverpool con destino a América para librarse de la misteriosa maldición que pesa sobre su familia. Con el paso de los años, Barnabas (Johnny Depp), un playboy impenitente, se convierte en un hombre rico y poderoso que comete el error de romperle el corazón a Angelique Bouchard (Eva Green). Pero ella, que es una bruja, lo condena a un destino peor que la muerte: lo convierte en vampiro y lo entierra vivo. Dos siglos después, en 1972, Barnabas consigue salir de su tumba y se encuentra con un mundo irreconocible. Adaptación de la serie de televisión creada por Dan Curtis en 1966, que tuvo un remake en 1991.




código:
http://www.listalinks.com/?L=ae625f8d