Título: Secuestrada
Título original: Carjacked
País: USA
Estreno en USA:
Estreno en España:
Lanzamiento en DVD (alquiler): 24/07/2012
Productora: Daniel Grodnik Productions, Films In Motion, Goldrush Entertainment
Director: John Bonito
Guión: Michael Compton, Sherry Compton
Reparto: Maria Bello, Stephen Dorff, Joanna Cassidy, Catherine Dent


Se centra en un atracador de bancos que secuestra a una madre soltera y a su hija mientras van en su coche.






General

Format : AVI
Format/Info : Audio Video Interleave
File size : 1.80 GiB
Duration : 2h 1mn
Overall bit rate : 2 126 Kbps
Writing application : VirtualDubMod 1.5.10.2 (build 2540/release)
Writing library : VirtualDubMod build 2540/release

Video
ID : 0
Format : MPEG-4 Visual
Format profile : Advanced Simple@L5
Format settings, BVOP : 2
Format settings, QPel : No
Format settings, GMC : No warppoints
Format settings, Matrix : Custom
Codec ID : XVID
Codec ID/Hint : XviD
Duration : 2h 1mn
Bit rate : 1 669 Kbps
Width : 720 pixels
Height : 304 pixels
Display aspect ratio : 2.35:1
Frame rate : 23.976 fps
Color space : YUV
Chroma subsampling : 4:2:0
Bit depth : 8 bits
Scan type : Progressive
Compression mode : Lossy
Bits/(Pixel*Frame) : 0.318
Stream size : 1.41 GiB (79%)
Writing library : XviD 1.2.1 (UTC 2008-12-04)

Audio
ID : 1
Format : AC-3
Format/Info : Audio Coding 3
Mode extension : CM (complete main)
Codec ID : 2000
Duration : 2h 0mn
Bit rate mode : Constant
Bit rate : 448 Kbps
Channel(s) : 6 channels
Channel positions : Front: L C R, Side: L R, LFE
Sampling rate : 48.0 KHz
Bit depth : 16 bits
Compression mode : Lossy
Stream size : 388 MiB (21%)
Alignment : Split accross interleaves
Interleave, duration : 42 ms (1.00 video frame)
Interleave, preload duration : 500 ms




DESCARGA AL MAXIMO, EL MEJOR

[HIDE]
código:
http://www.sharpfile.com/73q4ct2jbw9v/tks.dvdrip.papianton.part4.rar.html
http://www.sharpfile.com/4m8k3hzgcyq/tks.dvdrip.papianton.part3.rar.html
http://www.sharpfile.com/znmjcpd3/tks.dvdrip.papianton.part2.rar.html
http://www.sharpfile.com/d3hpt874/tks.dvdrip.papianton.part1.rar.html
[/HIDE]

RECUERDA UTILIZAR ESTOS GESTORES PARA FACILITAR TU DESCARGA



[HIDE]
código:
http://jdownloader.org/download/index
http://www.mipony.net/es/
https://rapidshare.com/files/3080869911/I.D.M_2012.rar
[/HIDE]

Descomprimir con Winrar