Resultados 1 al 2 de 2
  1. #1
    Dw Silver
    Fecha de ingreso
    20 jun, 11
    Mensajes
    449
    Poder de reputación
    16
    The Hunger Games - Los Juegos del Hambre (2012)[BRRip-720p][Audio: Esp.Latino-Ingles][Varios Hosts]


    The Hunger Games - Los Juegos del Hambre (2012)
    BRRip 720p | XviD | AC3 5.1 | 4.2 GB | Audios: Español Latino, Inglés | Subtítulos: Español | Ciencia Ficción | 2012



    TÍTULO ORIGINAL: The Hunger Games
    OTROS TÍTULOS: Los Juegos del Hambre
    AÑO: 2012
    DURACIÓN: 142 min.
    PAÍS: USA
    DIRECTOR: Gary Ross
    GUIÓN: Gary Ross, Suzanne Collins, Billy Ray (Novela: Suzanne Collins)
    MÚSICA: James Newton Howard, T-Bone Burnett
    FOTOGRAFÍA: Tom Stern
    REPARTO: Jennifer Lawrence, Josh Hutcherson, Elizabeth Banks, Stanley Tucci, Liam Hemsworth, Woody Harrelson, Donald Sutherland, Toby Jones, Lenny Kravitz, Wes Bentley, Paula Malcomson, Isabelle Fuhrman
    PRODUCTORA: Lionsgate / Color Force
    GÉNERO: Ciencia ficción. Aventuras | Thriller futurista


    NFO:
    código:
    General
    Complete name                    : The.Hunger.Games.2012.PROPER.720p.BRRip.LATiNO.ENG.XviD.AC3-ViSiON.avi
    Format                           : AVI
    Format/Info                      : Audio Video Interleave
    Format profile                   : OpenDML
    File size                        : 4.25 GiB
    Duration                         : 2h 22mn
    Overall bit rate                 : 4 265 Kbps
    Writing application              : VirtualDubMod 1.5.10.2 (build 2542/release)
    Writing library                  : VirtualDubMod build 2542/release
    
    Video
    ID                               : 0
    Format                           : MPEG-4 Visual
    Format profile                   : Advanced Simple@L5
    Format settings, BVOP            : 1
    Format settings, QPel            : No
    Format settings, GMC             : No warppoints
    Format settings, Matrix          : Custom
    Muxing mode                      : Packed bitstream
    Codec ID                         : XVID
    Codec ID/Hint                    : XviD
    Duration                         : 2h 22mn
    Bit rate                         : 3 163 Kbps
    Width                            : 1 280 pixels
    Height                           : 534 pixels
    Display aspect ratio             : 2.40:1
    Frame rate                       : 23.976 fps
    Color space                      : YUV
    Chroma subsampling               : 4:2:0
    Bit depth                        : 8 bits
    Scan type                        : Progressive
    Compression mode                 : Lossy
    Bits/(Pixel*Frame)               : 0.193
    Stream size                      : 3.15 GiB (74%)
    Writing library                  : XviD 1.2.1 (UTC 2008-12-04)
    
    Audio #1
    ID                               : 1
    Format                           : AC-3
    Format/Info                      : Audio Coding 3
    Mode extension                   : CM (complete main)
    Codec ID                         : 2000
    Duration                         : 2h 22mn
    Bit rate mode                    : Constant
    Bit rate                         : 640 Kbps
    Channel(s)                       : 6 channels
    Channel positions                : Front: L C R, Side: L R, LFE
    Sampling rate                    : 48.0 KHz
    Bit depth                        : 16 bits
    Compression mode                 : Lossy
    Stream size                      : 653 MiB (15%)
    Alignment                        : Split accross interleaves
    Interleave, duration             : 42 ms (1.00 video frame)
    Interleave, preload duration     : 500 ms
    
    Audio #2
    ID                               : 2
    Format                           : AC-3
    Format/Info                      : Audio Coding 3
    Mode extension                   : CM (complete main)
    Codec ID                         : 2000
    Duration                         : 2h 22mn
    Bit rate mode                    : Constant
    Bit rate                         : 448 Kbps
    Channel(s)                       : 6 channels
    Channel positions                : Front: L C R, Side: L R, LFE
    Sampling rate                    : 48.0 KHz
    Bit depth                        : 16 bits
    Compression mode                 : Lossy
    Stream size                      : 457 MiB (11%)
    Alignment                        : Split accross interleaves
    Interleave, duration             : 42 ms (1.00 video frame)
    Interleave, preload duration     : 500 ms



    Lo que en el pasado fueron los Estados Unidos, ahora es una nación llamada Panem: un fastuoso Capitolio ejerce un control riguroso sobre los doce distritos que lo rodean y que están aislados entre sí. Cada distrito se ve obligado a enviar anualmente un chico y una chica entre los doce y los dieciocho años para que participen en los Hunger Games, que son transmitidos en directo por la televisión. Se trata de una lucha a muerte, en la que sólo puede haber un superviviente. Katniss Everdeen, una joven de dieciséis años, decide sustituir a su hermana en los juegos; pero para ella, que ya ha visto la muerte de cerca, la lucha por la supervivencia es su segunda naturaleza.




    Contraseña: byseelej

    código:
    http://www.listalinks.com/?L=5b45b2b4















  2. #2
    DW-Girl
    Fecha de ingreso
    15 dic, 09
    Mensajes
    25
    Poder de reputación
    0
    Re: The Hunger Games - Los Juegos del Hambre (2012)[BRRip-720p][Audio: Esp.Latino-Ingles][Varios Hosts]
    bajando, genio muchas gracias

Temas similares

  1. Respuestas: 1
    Último mensaje: 06/08/2012, 13:29
  2. Respuestas: 0
    Último mensaje: 04/08/2012, 20:34

Etiquetas para este tema

Permisos de Publicación

  • No puedes crear nuevos temas
  • No puedes responder temas
  • No puedes subir archivos adjuntos
  • No puedes editar tus mensajes
  •