Espejito Espejito (2012)
BDRip 720p | XviD | AC3 5.1 | 3.7 GB | Audio: Español Latino, Inglés | Subtítulos: Español, Inglés | Fantasía-Comedia | 2012



TÍTULO ORIGINAL: Mirror, Mirror (The Brothers Grimm: Snow White)
OTROS TÍTULOS: Blancanieves (Mirror, Mirror) / Espejito, Espejito
AÑO: 2012
DURACIÓN: 106 min.
PAÍS: USA
DIRECTOR: Tarsem Singh
GUIÓN: Melisa Wallack, Jason Keller (Cuento: Hermanos Grimm)
MÚSICA: Alan Menken
FOTOGRAFÍA: Brendan Galvin
REPARTO: Lily Collins, Julia Roberts, Sean Bean, Armie Hammer, Nathan Lane, Michael Lerner, Mare Winningham, Mark Povinelli, Jordan Prentice, Danny Woodburn, Sebastian Saraceno, Ronald Lee Clark, Martin Klebba, Joey Gnoffo
PRODUCTORA: Rat Entertainment / Relativity Media
GÉNERO: Comedia. Fantástico. Romance | Comedia romántica


NFO:
código:
General
Complete name                    : Mirror.Mirror.2012.720p.BDRip.LATiNO.ENG.XviD.AC3.avi
Format                           : AVI
Format/Info                      : Audio Video Interleave
Format profile                   : OpenDML
File size                        : 3.77 GiB
Duration                         : 1h 45mn
Overall bit rate                 : 5 094 Kbps

Video
ID                               : 0
Format                           : MPEG-4 Visual
Format profile                   : Advanced Simple@L5
Format settings, BVOP            : 2
Format settings, QPel            : No
Format settings, GMC             : No warppoints
Format settings, Matrix          : Default (MPEG)
Codec ID                         : XVID
Codec ID/Hint                    : XviD
Duration                         : 1h 45mn
Bit rate                         : 3 800 Kbps
Width                            : 1 280 pixels
Height                           : 688 pixels
Display aspect ratio             : 1.860
Frame rate                       : 23.976 fps
Color space                      : YUV
Chroma subsampling               : 4:2:0
Bit depth                        : 8 bits
Scan type                        : Progressive
Compression mode                 : Lossy
Bits/(Pixel*Frame)               : 0.180
Stream size                      : 2.81 GiB (75%)
Writing library                  : XviD 1.2.1 (UTC 2008-12-04)

Audio #1
ID                               : 1
Format                           : AC-3
Format/Info                      : Audio Coding 3
Mode extension                   : CM (complete main)
Codec ID                         : 2000
Duration                         : 1h 45mn
Bit rate mode                    : Constant
Bit rate                         : 640 Kbps
Channel(s)                       : 6 channels
Channel positions                : Front: L C R, Side: L R, LFE
Sampling rate                    : 48.0 KHz
Bit depth                        : 16 bits
Compression mode                 : Lossy
Delay relative to video          : 500ms
Stream size                      : 485 MiB (13%)
Alignment                        : Split accross interleaves
Interleave, duration             : 42 ms (1.00 video frame)
Interleave, preload duration     : 500 ms

Audio #2
ID                               : 2
Format                           : AC-3
Format/Info                      : Audio Coding 3
Mode extension                   : CM (complete main)
Codec ID                         : 2000
Duration                         : 1h 45mn
Bit rate mode                    : Constant
Bit rate                         : 640 Kbps
Channel(s)                       : 6 channels
Channel positions                : Front: L C R, Side: L R, LFE
Sampling rate                    : 48.0 KHz
Bit depth                        : 16 bits
Compression mode                 : Lossy
Stream size                      : 485 MiB (13%)
Alignment                        : Split accross interleaves
Interleave, duration             : 42 ms (1.00 video frame)
Interleave, preload duration     : 500 ms



Después de que el Rey desaparece, su ruin esposa toma el control de todo y mantiene a su bella hijastra, Blancanieves, escondida en el palacio. Pero cuando la princesa llama la atención de un rico príncipe, la celosa Reina hace que la joven desaparezca también. Rescatada por una banda de enanos rebeldes, Blancanienves se convierte en una valiente joven determinada a salvar su reino. Con la ayuda de sus nuevos amigos, ella se lanza a la acción para reclamar el reino que le pertenece y ganarse el amor del príncipe.




Contraseña: byseelej

código:
http://www.listalinks.com/?L=4dbd0291