Resultados 1 al 2 de 2
  1. #1
    Baneado
    Fecha de ingreso
    23 abr, 12
    Mensajes
    525
    Poder de reputación
    0
    Avatar 3D.SBS [1080p-mkv][DUAL-Es-Ing][DTS.AC3][Bluray.2009][C.Ficcion]






    TÍTULO ORIGINAL Avatar
    aÑO 2009
    DURACIÓN 161 min.
    PAÍS [Estados Unidos]
    DIRECTOR James Cameron
    GUIÓN James Cameron
    MÚSICA James Horner
    FOTOGRAFÍA Mauro Fiore
    REPARTO Sam Worthington, Zoe Saldana, Sigourney Weaver, Stephen Lang, Michelle Rodríguez, Giovanni Ribisi, Joel David Moore, Wes Studi, CCH Pounder, Laz Alonso, Dileep Rao
    PRODUCTORA 20th Century Fox / Lightstorm Entertainment / Giant Studios Inc.
    WEB OFICIAL [Solo usuarios registrados a DowntWarez.Com puede ver los links. ]
    PREMIOS 2009: 3 Oscars: Fotografía, dirección artística, efectos visuales. 9 nominaciones
    2009: 2 Globos de Oro: Mejor película, director. 4 nominaciones
    2009: 2 Premios BAFTA: Diseño de producción, efectos especiales. 8 nominaciones
    GÉNERO Ciencia ficción. Aventuras. Bélico. Acción. Fantástico. Romance | Extraterrestres. 3-D


    Año 2154. Jake Sully (Sam Worthington), un ex-marine condenado a vivir en una silla de ruedas, sigue siendo, a pesar de ello, un auténtico guerrero. Precisamente por ello ha sido designado para ir a Pandora, donde algunas empresas están extrayendo un mineral extraño que podría resolver la crisis energética de la Tierra. Para contrarrestar la toxicidad de la atmósfera de Pandora, se ha creado el programa Avatar, gracias al cual los humanos "conductores" mantienen sus conciencias unidas a un avatar: un cuerpo biológico controlado de forma remota que puede sobrevivir en el aire letal. Esos cuerpos han sido creados con ADN humano, mezclado con ADN de los nativos de Pandora, los Na'vi.






    código:
    General
    
    Format                                   : Matroska
    Format version                           : Version 2
    File size                                : 14.5 GiB
    Duration                                 : 2h 41mn
    Overall bit rate                         : 12.8 Mbps
    Encoded date                             : UTC 2011-12-07 20:20:54
    Writing application                      : mkvmerge v5.0.1 ('Es ist Sommer') built on Oct 13 2011 10:54:56
    Writing library                          : libebml v1.2.2 + libmatroska v1.3.0
    
    Video
    ID                                       : 1
    Format                                   : AVC
    Format/Info                              : Advanced Video Codec
    Format profile                           : High@L4.0
    Format settings, CABAC                   : Yes
    Format settings, ReFrames                : 4 frames
    Codec ID                                 : V_MPEG4/ISO/AVC
    Duration                                 : 2h 41mn
    Bit rate                                 : 10 000 Kbps
    Width                                    : 1 920 pixels
    Height                                   : 1 080 pixels
    Display aspect ratio                     : 16:9
    Frame rate mode                          : Variable
    Frame rate                               : 23.976 fps
    Color space                              : YUV
    Chroma subsampling                       : 4:2:0
    Bit depth                                : 8 bits
    Scan type                                : Progressive
    Bits/(Pixel*Frame)                       : 0.201
    Stream size                              : 10.9 GiB (75%)
    Writing library                          : x264 core 107 r1745 4785e8e
    Encoding settings                        : cabac=1 / ref=3 / deblock=1:0:0 / analyse=0x3:0x113 / me=hex / subme=7 / psy=1 / psy_rd=1.00:0.00 / mixed_ref=1 / me_range=16 / chroma_me=1 / trellis=1 / 8x8dct=1 / cqm=0 / deadzone=21,11 / fast_pskip=1 / chroma_qp_offset=-2 / threads=4 / sliced_threads=0 / nr=0 / decimate=1 / interlaced=0 / constrained_intra=0 / bframes=3 / b_pyramid=2 / b_adapt=1 / b_bias=0 / direct=1 / weightb=1 / open_gop=0 / weightp=2 / keyint=250 / keyint_min=25 / scenecut=40 / intra_refresh=0 / rc_lookahead=40 / rc=abr / mbtree=1 / bitrate=10000 / ratetol=1.0 / qcomp=0.60 / qpmin=10 / qpmax=51 / qpstep=4 / ip_ratio=1.41 / aq=1:1.00
    Language                                 : English
    Default                                  : Yes
    Forced                                   : No
    
    Audio #1
    ID                                       : 2
    Format                                   : DTS
    Format/Info                              : Digital Theater Systems
    Codec ID                                 : A_DTS
    Duration                                 : 2h 41mn
    Bit rate mode                            : Constant
    Bit rate                                 : 754 Kbps
    Channel(s)                               : 6 channels
    Channel positions                        : Front: L C R, Side: L R, LFE
    Sampling rate                            : 48.0 KHz
    Bit depth                                : 24 bits
    Compression mode                         : Lossy
    Stream size                              : 873 MiB (6%)
    Title                                    : DTS Spanish
    Language                                 : Spanish
    Default                                  : Yes
    Forced                                   : No
    
    Audio #2
    ID                                       : 3
    Format                                   : AC-3
    Format/Info                              : Audio Coding 3
    Mode extension                           : CM (complete main)
    Codec ID                                 : A_AC3
    Duration                                 : 2h 41mn
    Bit rate mode                            : Constant
    Bit rate                                 : 640 Kbps
    Channel(s)                               : 6 channels
    Channel positions                        : Front: L C R, Side: L R, LFE
    Sampling rate                            : 48.0 KHz
    Bit depth                                : 16 bits
    Compression mode                         : Lossy
    Stream size                              : 740 MiB (5%)
    Title                                    : AC3 Spanish
    Language                                 : Spanish
    Default                                  : No
    Forced                                   : No
    
    Audio #3
    ID                                       : 4
    Format                                   : DTS
    Format/Info                              : Digital Theater Systems
    Codec ID                                 : A_DTS
    Duration                                 : 2h 41mn
    Bit rate mode                            : Constant
    Bit rate                                 : 1 510 Kbps
    Channel(s)                               : 6 channels
    Channel positions                        : Front: L C R, Side: L R, LFE
    Sampling rate                            : 48.0 KHz
    Bit depth                                : 24 bits
    Compression mode                         : Lossy
    Stream size                              : 1.71 GiB (12%)
    Title                                    : DTS English
    Language                                 : English
    Default                                  : No
    Forced                                   : No
    
    Text #1
    ID                                       : 5
    Format                                   : UTF-8
    Codec ID                                 : S_TEXT/UTF8
    Codec ID/Info                            : UTF-8 Plain Text
    Title                                    : Spanish Forzados
    Language                                 : Spanish
    Default                                  : Yes
    Forced                                   : Yes
    
    Text #2
    ID                                       : 6
    Format                                   : UTF-8
    Codec ID                                 : S_TEXT/UTF8
    Codec ID/Info                            : UTF-8 Plain Text
    Title                                    : Spansih
    Language                                 : Spanish
    Default                                  : No
    Forced                                   : No





    *DESCARGA AL MAXIMO, EL MEJOR*
    Contenido Oculto, debes [Solo usuarios registrados a DowntWarez.Com puede ver los links. ] para poder ver lo que hay dentro :)


    Contenido Oculto, debes [Solo usuarios registrados a DowntWarez.Com puede ver los links. ] para poder ver lo que hay dentro :)


    Contenido Oculto, debes [Solo usuarios registrados a DowntWarez.Com puede ver los links. ] para poder ver lo que hay dentro :)

    Descomprimir con Winrar

  2. #2
    Mini User
    Fecha de ingreso
    03 sep, 12
    Mensajes
    5
    Poder de reputación
    0
    Re: Avatar 3D.SBS [1080p-mkv][DUAL-Es-Ing][DTS.AC3][Bluray.2009][C.Ficcion]
    agradecido compi gracias

Temas similares

  1. [NL] Avatar [2009][Eng. DTS 5.1][1080p][Ciencia ficción]
    Por Anakin61 en el foro 1080p y 720p
    Respuestas: 0
    Último mensaje: 27/04/2012, 11:38
  2. Avatar [2009][1080p][Castellano-English][Ficción][4-Serv]
    Por kooldoom@hotmail.com en el foro 1080p y 720p
    Respuestas: 0
    Último mensaje: 12/12/2011, 09:02
  3. Avatar [HDRip][Dual | Español/Inglés][C. Ficción][2009]
    Por Sefarad en el foro HDRip , HDTV y BRrip
    Respuestas: 0
    Último mensaje: 13/09/2011, 09:26
  4. Respuestas: 0
    Último mensaje: 30/03/2011, 16:33
  5. Avatar [HDrip (960x544) Ciencia Ficción/Acción Dual 2009]
    Por Neda en el foro HDRip , HDTV y BRrip
    Respuestas: 7
    Último mensaje: 12/10/2010, 23:39

Etiquetas para este tema

Permisos de Publicación

  • No puedes crear nuevos temas
  • No puedes responder temas
  • No puedes subir archivos adjuntos
  • No puedes editar tus mensajes
  •