Resultados 1 al 1 de 1
  1. #1
    Dw Platinum
    Fecha de ingreso
    19 jun, 09
    Mensajes
    1,085
    Poder de reputación
    32
    X-Men Primera generación [2011][Ciencia ficción][DVDRip][Castellano Ac3 5.1]
    X-Men Primera generación [2011]



    TÍTULO ORIGINAL X-Men: First Class
    AÑO 2011
    DURACIÓN 131 min.
    PAÍS USA
    DIRECTOR Matthew Vaughn
    GUIÓN Cory Goodman (Novela gráfica: Min-Woo Hyung)
    MÚSICA Henry Jackman
    FOTOGRAFÍA John Mathieson
    REPARTO James McAvoy, Michael Fassbender, Kevin Bacon, January Jones, Jason Flemyng, Rose Byrne, Oliver Platt, Jennifer Lawrence, Lucas Till, Zoë Kravitz, James Remar, Matt Craven, Rade Serbedzija, Michael Ironside, Laurence Belcher, Bill Milner, Beth Goddard, Morgan Lily, Álex González, Nicholas Hoult, Caleb Landry Jones, Edi Gathegi
    PRODUCTORA 20th Century Fox
    GÉNERO Ciencia ficción. Fantástico. Acción | Cómic. Superhéroes. Años 40. Años 60. Precuela

    SINOPSIS
    ‘X-Men: First Class’ narra la juventud del profesor Xavier y Eric Lensherr (Magneto) antes de que estalle su rivalidad, cuando aún estaban descubriendo sus poderes; una época en la que colaboraron juntos, ayudados por otros mutantes (algunos ya vistos, otros nuevos) para combatir la mayor amenaza que el mundo ha conocido (FILMAFFINITY)



    DATOS DEL VIDEO:

    Calidad DVDRip
    Codec de Video: XviD - 23.976 fps
    Formato: Avi
    Tamaño: 1,77 GB
    Resolucion: 720x304
    Duracion: 02:11
    Pista Audio 1: Ac3 5.1 448 Kbps Castellano

    Nota:Subtítulos forzados ya incrustados para carteles y partes NO dobladas en Ruso, Alemán y Frances







    [ MEDIAINFO ]

    código:
    General
    
    Format                                   : AVI
    Format/Info                              : Audio Video Interleave
    File size                                : 1.78 GiB
    Duration                                 : 2h 11mn
    Overall bit rate                         : 1 931 Kbps
    Writing application                      : VirtualDubMod 1.5.10.3 | [Solo usuarios registrados a DowntWarez.Com puede ver los links. ] || (build 2550/release)
    Writing library                          : VirtualDubMod build 2550/release
    
    Video
    ID                                       : 0
    Format                                   : MPEG-4 Visual
    Format profile                           : Advanced Simple@L5
    Format settings, BVOP                    : 2
    Format settings, QPel                    : No
    Format settings, GMC                     : No warppoints
    Format settings, Matrix                  : Default (MPEG)
    Codec ID                                 : XVID
    Codec ID/Hint                            : XviD
    Duration                                 : 2h 11mn
    Bit rate                                 : 1 473 Kbps
    Width                                    : 720 pixels
    Height                                   : 304 pixels
    Display aspect ratio                     : 2.35:1
    Frame rate                               : 23.976 fps
    Original frame rate                      : 25.000 fps
    Color space                              : YUV
    Chroma subsampling                       : 4:2:0
    Bit depth                                : 8 bits
    Scan type                                : Progressive
    Compression mode                         : Lossy
    Bits/(Pixel*Frame)                       : 0.281
    Stream size                              : 1.36 GiB (76%)
    Writing library                          : XviD 1.2.1 (UTC 2008-12-04)
    
    Audio
    ID                                       : 1
    Format                                   : AC-3
    Format/Info                              : Audio Coding 3
    Mode extension                           : CM (complete main)
    Codec ID                                 : 2000
    Duration                                 : 2h 11mn
    Bit rate mode                            : Constant
    Bit rate                                 : 448 Kbps
    Channel(s)                               : 6 channels
    Channel positions                        : Front: L C R, Side: L R, LFE
    Sampling rate                            : 48.0 KHz
    Bit depth                                : 16 bits
    Compression mode                         : Lossy
    Stream size                              : 422 MiB (23%)
    Alignment                                : Split accross interleaves
    Interleave, duration                     : 42 ms (1.00 video frame)
    Interleave, preload duration             : 500 ms





    TRAILER:

    + [Solo usuarios registrados a DowntWarez.Com puede ver los links. ]
    ERROR: [Solo usuarios registrados a DowntWarez.Com puede ver los links. ]esta caido o no tienes Flash instalado.



    CAPTURA DE IMAGEN:



    Subtítulos forzados ya incrustados para carteles y partes NO dobladas en Ruso, Alemán y Frances







    DESCARGA:

    [Solo usuarios registrados a DowntWarez.Com puede ver los links. ]

    [Solo usuarios registrados a DowntWarez.Com puede ver los links. ]

    [Solo usuarios registrados a DowntWarez.Com puede ver los links. ]

    [Solo usuarios registrados a DowntWarez.Com puede ver los links. ]

    [Solo usuarios registrados a DowntWarez.Com puede ver los links. ]

    [Solo usuarios registrados a DowntWarez.Com puede ver los links. ]






    ENLACES INTERCAMBIABLES:

    [Solo usuarios registrados a DowntWarez.Com puede ver los links. ]

    [Solo usuarios registrados a DowntWarez.Com puede ver los links. ]
    [Solo usuarios registrados a DowntWarez.Com puede ver los links. ]
    [Solo usuarios registrados a DowntWarez.Com puede ver los links. ]

    [Solo usuarios registrados a DowntWarez.Com puede ver los links. ]

    [Solo usuarios registrados a DowntWarez.Com puede ver los links. ]
    [Solo usuarios registrados a DowntWarez.Com puede ver los links. ]
    [Solo usuarios registrados a DowntWarez.Com puede ver los links. ]

    [Solo usuarios registrados a DowntWarez.Com puede ver los links. ]

    [Solo usuarios registrados a DowntWarez.Com puede ver los links. ]
    [Solo usuarios registrados a DowntWarez.Com puede ver los links. ]
    [Solo usuarios registrados a DowntWarez.Com puede ver los links. ]






    los enlaces estan respaldados, así que si los borran
    me dejan un msj privado
    y los vuelvo a subir,gracias.
    Última edición por uytyu; 17/12/2012 a las 11:35

Temas similares

  1. Xmen 4 Primera Generacion (2011)(HdRip)(Ciencia ficcion)(Castellano)
    Por nueve93 en el foro HDRip , HDTV y BRrip
    Respuestas: 0
    Último mensaje: 04/10/2011, 19:03
  2. Respuestas: 0
    Último mensaje: 01/10/2011, 13:42

Etiquetas para este tema

Permisos de Publicación

  • No puedes crear nuevos temas
  • No puedes responder temas
  • No puedes subir archivos adjuntos
  • No puedes editar tus mensajes
  •