Inspirada en la serie de 190 cortos, de unos 16 minutos, 'The Three Stooges' que estrenó Columbia Pictures entre 1934 y 1958. Los protagonistas son tres recién nacidos que viven en un orfanato.



TÍTULO ORIGINAL The Three Stooges
AÑO Ver trailer externo 2012
DURACIÓN Trailers/Vídeos min.
PAÍS U.S.A.
DIRECTOR Peter Farrelly, Robert Farrelly (AKA Bobby Farrelly)
GUIÓN Peter Farrelly, Robert Farrelly (AKA Bobby Farrelly)
MÚSICA John Debney
FOTOGRAFÍA Matthew F. Leonetti
REPARTO Sean Hayes, Will Sasso, Chris Diamantopoulos, Sofia Vergara, Larry David, Jane Lynch, Jennifer Hudson
PRODUCTORA C3 Entertainment Inc. / Conundrum Entertainment
GÉNERO Comedia | Película de episodios




CALIDAD: DVDRip
FORMATO: Avi
AUDIO: Español Latino


lostreschiflad0s_2012.DVDRip.latino.AlanjaV.avi
Format : AVI
Format/Info : Audio Video Interleave
File size : 696 MiB
Duration : 1h 32mn
Overall bit rate : 1 057 Kbps
Movie name : Los 3 Chiflados 2012 DVDRip Latino
Genre : Comedia
Recorded date : 06-07-2012
Writing application : VirtualDubMod 1.5.10.2 (build 2542/release)
Writing library : VirtualDubMod build 2542/release

Video
ID : 0
Format : MPEG-4 Visual
Format profile : Advanced Simple@L5
Format settings, BVOP : 2
Format settings, QPel : No
Format settings, GMC : No warppoints
Format settings, Matrix : Default (H.263)
Muxing mode : Packed bitstream
Codec ID : XVID
Codec ID/Hint : XviD
Duration : 1h 32mn
Bit rate : 919 Kbps
Width : 624 pixels
Height : 336 pixels
Display aspect ratio : 1.857
Frame rate : 23.976 fps
Color space : YUV
Chroma subsampling : 4:2:0
Bit depth : 8 bits
Scan type : Progressive
Compression mode : Lossy
Bits/(Pixel*Frame) : 0.183
Stream size : 605 MiB (87%)
Writing library : XviD 64

Audio
ID : 1
Format : MPEG Audio
Format version : Version 1
Format profile : Layer 3
Mode : Joint stereo
Mode extension : MS Stereo
Codec ID : 55
Codec ID/Hint : MP3
Duration : 1h 32mn
Bit rate mode : Constant
Bit rate : 128 Kbps
Channel(s) : 2 channels
Sampling rate : 48.0 KHz
Compression mode : Lossy
Stream size : 84.3 MiB (12%)
Alignment : Aligned on interleaves
Interleave, duration : 42 ms (1.00 video frame)
Interleave, preload duration : 504 ms
Writing library : LAME3.99r
Encoding settings : -m j -V 4 -q 2 -lowpass 17 -b 128








[Solo usuarios registrados a DowntWarez.Com puede ver los links. ]



[Solo usuarios registrados a DowntWarez.Com puede ver los links. ]

]