El Más Duro[2012]Bad Ass[BDRip 720p]AC3 5.1[Es-LATINO]DTS[En-US][Sub Forz][Acción]



Ficha Técnica
TÍTULO: Bad Ass
AÑO: 2012
PAÍS: Estados Unidos
DIRECTOR: Craig Moss
GUIÓN: Craig Moss, Elliot Tishman
MÚSICA: Todd Haberman
FOTOGRAFÍA: John Barr
PRODUCTORA: Amber Lamps / Silver Nitrate
GÉNERO: Acción | Basado en hechos reales
REPARTO: Danny Trejo, Ron Perlman, Charles S. Dutton, Joyful Drake, Patrick Fabian, John Duffy, Winter Ave Zoli, Jennifer Blanc

Datos Técnicos

código:
Aporte Exclusivo Por::::...CadagotoHD...::::
General
Unique ID                                : 209191445373924496536233291435497770617 (0x9D60CE8F650817AFB3F3E3FF495C4E79)
Complete name                            : P:\CadagotoHD\Bad.Ass.2012.CadagotoHD\Bad.Ass.2012.720p.LATINO.Aporte Exclusivo Por CadagotoHD.mkv
Format                                   : Matroska
Format version                           : Version 2
File size                                : 5.56 GiB
Duration                                 : 1h 30mn
Overall bit rate                         : 8 832 Kbps
Movie name                               : Aporte Exclusivo Por :::....CadagotoHD....:::
Encoded date                             : UTC 2012-07-05 03:32:21
Writing application                      : mkvmerge v4.4.0 ('Die Wiederkehr') realizado en Oct 31 2010 21:52:48
Writing library                          : libebml v1.0.0 + libmatroska v1.0.0

Video
ID                                       : 1
Format                                   : AVC
Format/Info                              : Advanced Video Codec
Format profile                           : High@L4.1
Format settings, CABAC                   : Yes
Format settings, ReFrames                : 9 frames
Codec ID                                 : V_MPEG4/ISO/AVC
Duration                                 : 1h 30mn
Bit rate                                 : 6 763 Kbps
Width                                    : 1 280 pixels
Height                                   : 690 pixels
Display aspect ratio                     : 1.855
Frame rate                               : 23.976 fps
Color space                              : YUV
Chroma subsampling                       : 4:2:0
Bit depth                                : 8 bits
Scan type                                : Progressive
Bits/(Pixel*Frame)                       : 0.319
Stream size                              : 4.26 GiB (77%)
Title                                    : Aporte Exclusivo Por :::...CadagotoHD...:::
Writing library                          : x264 core 116 r2057 0ba8a9c
Encoding settings                        : cabac=1 / ref=9 / deblock=1:-3:-3 / analyse=0x3:0x133 / me=umh / subme=10 / psy=1 / psy_rd=1.00:0.00 / mixed_ref=1 / me_range=32 / chroma_me=1 / trellis=2 / 8x8dct=1 / cqm=0 / deadzone=21,11 / fast_pskip=0 / chroma_qp_offset=-2 / threads=18 / sliced_threads=0 / nr=0 / decimate=0 / interlaced=0 / bluray_compat=0 / constrained_intra=0 / bframes=7 / b_pyramid=2 / b_adapt=2 / b_bias=0 / direct=3 / weightb=1 / open_gop=0 / weightp=2 / keyint=250 / keyint_min=23 / scenecut=40 / intra_refresh=0 / rc_lookahead=40 / rc=crf / mbtree=0 / crf=17.0 / qcomp=0.65 / qpmin=0 / qpmax=40 / qpstep=4 / vbv_maxrate=50000 / vbv_bufsize=50000 / crf_max=0.0 / nal_hrd=none / ip_ratio=1.25 / pb_ratio=1.25 / aq=1:0.65
Language                                 : English
Default                                  : Yes
Forced                                   : No

Audio #1
ID                                       : 2
Format                                   : AC-3
Format/Info                              : Audio Coding 3
Mode extension                           : CM (complete main)
Codec ID                                 : A_AC3
Duration                                 : 1h 30mn
Bit rate mode                            : Constant
Bit rate                                 : 384 Kbps
Channel(s)                               : 6 channels
Channel positions                        : Front: L C R, Side: L R, LFE
Sampling rate                            : 48.0 KHz
Bit depth                                : 16 bits
Compression mode                         : Lossy
Stream size                              : 248 MiB (4%)
Title                                    : Audio Latino AC3 5.1  :::...CadagotoHD...:::
Default                                  : No
Forced                                   : No

Audio #2
ID                                       : 3
Format                                   : DTS
Format/Info                              : Digital Theater Systems
Codec ID                                 : A_DTS
Duration                                 : 1h 30mn
Bit rate mode                            : Constant
Bit rate                                 : 1 510 Kbps
Channel(s)                               : 6 channels
Channel positions                        : Front: L C R, Side: L R, LFE
Sampling rate                            : 48.0 KHz
Bit depth                                : 24 bits
Compression mode                         : Lossy
Delay relative to video                  : 11ms
Stream size                              : 974 MiB (17%)
Title                                    : Ingles DTS :::...CadagotoHD...:::
Language                                 : English
Default                                  : Yes
Forced                                   : No

Text
ID                                       : 4
Format                                   : UTF-8
Codec ID                                 : S_TEXT/UTF8
Codec ID/Info                            : UTF-8 Plain Text
Title                                    : Sub Forzados  :::...CadagotoHD...:::
Default                                  : Yes
Forced                                   : No

Menu
00:00:00.000                             : en:00:00:00.000
00:03:11.358                             : en:00:03:11.358
00:07:42.212                             : en:00:07:42.212
00:11:22.891                             : en:00:11:22.891
00:15:38.521                             : en:00:15:38.521
00:19:12.526                             : en:00:19:12.526
00:22:29.765                             : en:00:22:29.765
00:27:41.493                             : en:00:27:41.493
00:31:33.642                             : en:00:31:33.642
00:34:48.837                             : en:00:34:48.837
00:37:45.513                             : en:00:37:45.513
00:41:32.532                             : en:00:41:32.532
00:44:16.362                             : en:00:44:16.362
00:46:50.057                             : en:00:46:50.057
00:49:41.145                             : en:00:49:41.145
00:53:28.747                             : en:00:53:28.747
00:55:59.481                             : en:00:55:59.481
00:58:28.296                             : en:00:58:28.296
01:02:08.141                             : en:01:02:08.141
01:05:23.711                             : en:01:05:23.711
01:07:36.970                             : en:01:07:36.970
01:12:57.873                             : en:01:12:57.873
01:18:11.645                             : en:01:18:11.645
01:24:42.661                             : en:01:24:42.661


Aporte Exclusivo Por::::...CadagotoHD...::::
Sinopsis
Danny Trejo es el condecorado en Vietnam Frank Vega, quien tras regresar a casa comprueba que es rechazado por una sociedad que le deja sin trabajo. Pero años más tarde, Fank se convierte en un héroe local al proteger a un anciano negro de dos cabezas rapadas que intentan agredirle en el autobús. Su suerte vuelve a cambiar cuando su mejor amigo es asesinado y ve como la policía no está haciendo nada al respecto.











Links De 500 Mb!
(Abrir el link en tu Navegador, Eperar 8 Segundos Y Pulsar AQUI)

¡Descargar AQUI!
[Solo usuarios registrados a DowntWarez.Com puede ver los links. ]




Los Archivos .REV Reemplazan A Cualquiera de Los Demas Rars!

¡Aquellos Archivos Sustituyen Partes Off O Dañadas , Úsalos!