Viviendo Como Un Flynn[2012][BDRip 720p]AC3 5.1[Es-LATINO]DTS[En-US][Sub][Comedia]



Ficha Técnica
TÍTULO ORIGINAL: Being Flynn (Another Bullshit Night in Suck City)
OTROS TÍTULOS: Viviendo como un Flynn
AÑO: 2012
DURACIÓN: 102 min.
PAÍS: USA
DIRECTOR: Paul Weitz
GUIÓN: Paul Weitz (Memorias: Nick Flynn)
MÚSICA: Damon Gough
FOTOGRAFÍA: Declan Quinn
REPARTO: Paul Dano, Robert De Niro, Julianne Moore, Olivia Thirlby, Lili Taylor, Victor Rasuk, Dale Dickey, Billy Wirth, Katherine Waterston
PRODUCTORA: Focus Features / Corduroy Films / Depth of Field
GÉNERO: Comedia. Drama | Comedia dramática. Basado en hechos reales

Datos Técnicos

código:
Aporte Exclusivo Por::::...CadagotoHD...::::
General
Unique ID                                : 173947385434245990791553938397490594206 (0x82DD0C3EF3A933D98A8E1C1B6B9C419E)
Complete name                            : P:\CadagotoHD\Being.Flynn.2012.LIMITED.1080p.BluRay.X264-AMIABLE\Viviendo como un Flynn BDRip 720p Audio Latino 5.1 Exclusivo Por CadagotoHD.mkv
Format                                   : Matroska
Format version                           : Version 2
File size                                : 4.69 GiB
Duration                                 : 1h 41mn
Overall bit rate                         : 6 594 Kbps
Movie name                               : Aporte Exclusivo Por :::...CadagotoHD...:::
Encoded date                             : UTC 2012-07-02 03:20:48
Writing application                      : mkvmerge v4.4.0 ('Die Wiederkehr') realizado en Oct 31 2010 21:52:48
Writing library                          : libebml v1.0.0 + libmatroska v1.0.0

Video
ID                                       : 1
Format                                   : AVC
Format/Info                              : Advanced Video Codec
Format profile                           : High@L4.1
Format settings, CABAC                   : Yes
Format settings, ReFrames                : 5 frames
Codec ID                                 : V_MPEG4/ISO/AVC
Duration                                 : 1h 41mn
Bit rate                                 : 4 640 Kbps
Width                                    : 1 280 pixels
Height                                   : 536 pixels
Display aspect ratio                     : 2.40:1
Frame rate                               : 23.976 fps
Color space                              : YUV
Chroma subsampling                       : 4:2:0
Bit depth                                : 8 bits
Scan type                                : Progressive
Bits/(Pixel*Frame)                       : 0.282
Stream size                              : 3.20 GiB (68%)
Title                                    : Aporte Exclusivo Por :::...CadagotoHD...:::
Writing library                          : x264 core 125 r2200 999b753
Encoding settings                        : cabac=1 / ref=5 / deblock=1:0:0 / analyse=0x3:0x113 / me=umh / subme=8 / psy=1 / psy_rd=1.00:0.00 / mixed_ref=1 / me_range=16 / chroma_me=1 / trellis=1 / 8x8dct=1 / cqm=0 / deadzone=21,11 / fast_pskip=1 / chroma_qp_offset=-2 / threads=12 / lookahead_threads=2 / sliced_threads=0 / nr=0 / decimate=1 / interlaced=0 / bluray_compat=0 / constrained_intra=0 / bframes=3 / b_pyramid=2 / b_adapt=2 / b_bias=0 / direct=3 / weightb=1 / open_gop=0 / weightp=2 / keyint=240 / keyint_min=24 / scenecut=40 / intra_refresh=0 / rc_lookahead=50 / rc=2pass / mbtree=1 / bitrate=4640 / ratetol=1.0 / qcomp=0.60 / qpmin=0 / qpmax=69 / qpstep=4 / cplxblur=20.0 / qblur=0.5 / ip_ratio=1.40 / aq=1:1.00
Language                                 : English
Default                                  : Yes
Forced                                   : No

Audio #1
ID                                       : 2
Format                                   : AC-3
Format/Info                              : Audio Coding 3
Mode extension                           : CM (complete main)
Codec ID                                 : A_AC3
Duration                                 : 1h 41mn
Bit rate mode                            : Constant
Bit rate                                 : 448 Kbps
Channel(s)                               : 6 channels
Channel positions                        : Front: L C R, Side: L R, LFE
Sampling rate                            : 48.0 KHz
Bit depth                                : 16 bits
Compression mode                         : Lossy
Stream size                              : 326 MiB (7%)
Title                                    : Audio Latino AC3 5.1 :::...CadagotoHD...:::
Default                                  : Yes
Forced                                   : Yes

Audio #2
ID                                       : 3
Format                                   : DTS
Format/Info                              : Digital Theater Systems
Codec ID                                 : A_DTS
Duration                                 : 1h 41mn
Bit rate mode                            : Constant
Bit rate                                 : 1 510 Kbps
Channel(s)                               : 6 channels
Channel positions                        : Front: L C R, Side: L R, LFE
Sampling rate                            : 48.0 KHz
Bit depth                                : 24 bits
Compression mode                         : Lossy
Delay relative to video                  : 11ms
Stream size                              : 1.07 GiB (23%)
Title                                    : Ingles DTS :::...CadagotoHD...:::
Default                                  : No
Forced                                   : No

Text #1
ID                                       : 4
Format                                   : UTF-8
Codec ID                                 : S_TEXT/UTF8
Codec ID/Info                            : UTF-8 Plain Text
Title                                    : Sub Esp :::...CadagotoHD...:::
Default                                  : No
Forced                                   : No

Text #2
ID                                       : 5
Format                                   : UTF-8
Codec ID                                 : S_TEXT/UTF8
Codec ID/Info                            : UTF-8 Plain Text
Title                                    : Sub Forz :::...CadagotoHD...:::
Default                                  : Yes
Forced                                   : Yes

Menu
00:00:00.000                             : en:00:00:00.000
00:05:01.593                             : en:00:05:01.593
00:10:23.832                             : en:00:10:23.832
00:16:21.230                             : en:00:16:21.230
00:20:10.584                             : en:00:20:10.584
00:24:42.648                             : en:00:24:42.648
00:29:52.290                             : en:00:29:52.290
00:33:50.820                             : en:00:33:50.820
00:38:40.235                             : en:00:38:40.235
00:44:23.411                             : en:00:44:23.411
00:50:10.090                             : en:00:50:10.090
00:54:13.834                             : en:00:54:13.834
00:58:45.981                             : en:00:58:45.981
01:06:07.922                             : en:01:06:07.922
01:11:44.300                             : en:01:11:44.300
01:16:52.149                             : en:01:16:52.149
01:22:15.597                             : en:01:22:15.597
01:27:11.518                             : en:01:27:11.518
01:30:19.331                             : en:01:30:19.331
01:34:41.634                             : en:01:34:41.634


Aporte Exclusivo Por::::...CadagotoHD...::::
Sinopsis
En Boston, un joven escritor (Paul Dano) dedica su tiempo libre a trabajar como voluntario en un albergue que acoge gente sin hogar. Un día, inesperadamente, se encuentra con un vagabundo que resulta ser su padre (Robert De Niro), un hombre brillante pero problemático con el que había perdido contacto muchos años antes.










Links De 500 Mb!
(Abrir el link en tu Navegador, Eperar 8 Segundos Y Pulsar AQUI)

¡Descargar AQUI!
[Solo usuarios registrados a DowntWarez.Com puede ver los links. ]




Los Archivos .REV Reemplazan A Cualquiera de Los Demas Rars!

¡Aquellos Archivos Sustituyen Partes Off O Dañadas , Úsalos!