Vengador Anónimo (2011) | DVDRip | Español Latino |Acción. Thriller. Drama |




Cuando su esposa es brutalmente asaltada, Gerard (Nicolas Cage), un profesor de Nueva Orleáns, decide tomarse la justicia por su mano contando con el apoyo de un misterioso tipo llamado Simón (Guy Pearce), pero éste le exige un favor a cambio de su colaboración.


TÍTULO ORIGINAL: Seeking Justice
OTROS TÍtULOS: El Pacto / Fuera de la ley / El Vengador Anónimo
AÑO: 2011
DURACIÓN: 104 min.
PAÍS: USA
DIRECTOR: Roger Donaldson
GUIÓN: Todd Hickey, Robert Tannen
MÚSICA: J. Peter Robinson
FOTOGRAFÍA: David Tattersall
REPARTO: Nicolas Cage, Guy Pearce, January Jones, Jennifer Carpenter, Harold Perrineau, Xander Berkeley
PRODUCTORA: Endgame Entertainment / Maguire Entertainment / Ram Bergman Productions
GÉNERO: Acción. Thriller. Drama



Formato: AVI
calidad: DVDRip
Resolucion:
Tamaño: 702 MB
Idioma: Español Latino
código:
General
Complete name                    : Seeking.Justice.2011.DVDRip.LATiNO.XviD.avi
Format                           : AVI
Format/Info                      : Audio Video Interleave
File size                        : 703 MiB
Duration                         : 1h 44mn
Overall bit rate                 : 937 Kbps

Video
ID                               : 0
Format                           : MPEG-4 Visual
Format profile                   : Advanced Simple@L5
Format settings, BVOP            : 2
Format settings, QPel            : No
Format settings, GMC             : No warppoints
Format settings, Matrix          : Default (H.263)
Codec ID                         : XVID
Codec ID/Hint                    : XviD
Duration                         : 1h 44mn
Bit rate                         : 800 Kbps
Width                            : 640 pixels
Height                           : 272 pixels
Display aspect ratio             : 2.35:1
Frame rate                       : 23.976 fps
Color space                      : YUV
Chroma subsampling               : 4:2:0
Bit depth                        : 8 bits
Scan type                        : Progressive
Compression mode                 : Lossy
Bits/(Pixel*Frame)               : 0.192
Stream size                      : 600 MiB (85%)
Writing library                  : XviD 1.2.1 (UTC 2008-12-04)

Audio
ID                               : 1
Format                           : MPEG Audio
Format version                   : Version 1
Format profile                   : Layer 3
Mode                             : Joint stereo
Mode extension                   : MS Stereo
Codec ID                         : 55
Codec ID/Hint                    : MP3
Duration                         : 1h 44mn
Bit rate mode                    : Constant
Bit rate                         : 128 Kbps
Channel(s)                       : 2 channels
Sampling rate                    : 48.0 KHz
Compression mode                 : Lossy
Stream size                      : 96.0 MiB (14%)
Alignment                        : Aligned on interleaves
Interleave, duration             : 42 ms (1.00 video frame)
Interleave, preload duration     : 504 ms
Writing library                  : LAME3.99r

















Links Protegidos!!!!


Contenido Oculto, debes [Solo usuarios registrados a DowntWarez.Com puede ver los links. ] para poder ver lo que hay dentro :)


1 Link!!!
Contraseña:camix