John Carter [2012][BDRip 720p]AC3 5.1[Es-ESP][Es-Latino]DTS[En-Us][Sub Forz][Acción]




Ficha Técnica
-
TÍTULO: John Carter (John Carter of Mars)
AÑO: 2012
PAÍS: Estados Unidos
DIRECTOR: Andrew Stanton
GUIÓN: Michael Chabon, Andrew Stanton, Mark Andrews (Novela: Edgar Rice Burroughs)
MÚSICA: Michael Giacchino
FOTOGRAFÍA: Daniel Mindel
PRODUCTORA: Walt Disney Pictures
GÉNERO: Ciencia ficción. Fantástico. Aventuras | Extraterrestres. Siglo XIX
REPARTO: Taylor Kitsch, Lynn Collins, Willem Dafoe, Bryan Cranston, Mark Strong, Thomas Haden Church, Samantha Morton, Ciarán Hinds, Dominic West, Polly Walker, James Purefoy, Jonathan Hyde, Daryl Sabara

Datos Técnicos

código:
Montaje Por::::...Cadagoto...::::
General
Unique ID                                : 171873208803158529840392703943465278708 (0x814D9371467319EDB7137A594AE49CF4)
Complete name                            : D:\NL2QRB-user 8\CadagotoHD\JCEDM108LAT.Cadagoto\John.carter.2012.720p.TRIAL.CadagotoHD.mkv
Format                                   : Matroska
Format version                           : Version 2
File size                                : 6.23 GiB
Duration                                 : 2h 12mn
Overall bit rate                         : 6 758 Kbps
Movie name                               : * Aporte Exclusivo Por  :::...CadagotoHD...::: *
Encoded date                             : UTC 2012-06-28 02:34:36
Writing application                      : mkvmerge v3.4.0 ('Rapunzel') built on May 15 2010 09:38:20
Writing library                          : libebml v0.8.0 + libmatroska v0.9.0

Video
ID                                       : 1
Format                                   : AVC
Format/Info                              : Advanced Video Codec
Format profile                           : High@L4.1
Format settings, CABAC                   : Yes
Format settings, ReFrames                : 5 frames
Codec ID                                 : V_MPEG4/ISO/AVC
Duration                                 : 2h 12mn
Bit rate                                 : 4 414 Kbps
Width                                    : 1 280 pixels
Height                                   : 536 pixels
Display aspect ratio                     : 2.40:1
Frame rate                               : 23.976 fps
Color space                              : YUV
Chroma subsampling                       : 4:2:0
Bit depth                                : 8 bits
Scan type                                : Progressive
Bits/(Pixel*Frame)                       : 0.268
Stream size                              : 3.95 GiB (63%)
Title                                    : * Aporte Exclusivo Por  :::...CadagotoHD...::: *
Writing library                          : x264 core 124 r2197 69a0443
Encoding settings                        : cabac=1 / ref=5 / deblock=1:0:0 / analyse=0x3:0x133 / me=umh / subme=7 / psy=1 / psy_rd=1.00:0.00 / mixed_ref=1 / me_range=16 / chroma_me=1 / trellis=1 / 8x8dct=1 / cqm=0 / deadzone=21,11 / fast_pskip=0 / chroma_qp_offset=-2 / threads=12 / sliced_threads=0 / nr=0 / decimate=1 / interlaced=0 / bluray_compat=0 / constrained_intra=0 / bframes=3 / b_pyramid=2 / b_adapt=1 / b_bias=0 / direct=1 / weightb=1 / open_gop=0 / weightp=2 / keyint=250 / keyint_min=23 / scenecut=40 / intra_refresh=0 / rc_lookahead=40 / rc=2pass / mbtree=1 / bitrate=4414 / ratetol=1.0 / qcomp=0.60 / qpmin=0 / qpmax=69 / qpstep=4 / cplxblur=20.0 / qblur=0.5 / ip_ratio=1.40 / aq=1:1.00
Language                                 : English
Default                                  : No
Forced                                   : No

Audio #1
ID                                       : 2
Format                                   : AC-3
Format/Info                              : Audio Coding 3
Mode extension                           : CM (complete main)
Format settings, Endianness              : Big
Codec ID                                 : A_AC3
Duration                                 : 2h 12mn
Bit rate mode                            : Constant
Bit rate                                 : 448 Kbps
Channel(s)                               : 6 channels
Channel positions                        : Front: L C R, Side: L R, LFE
Sampling rate                            : 48.0 KHz
Bit depth                                : 16 bits
Compression mode                         : Lossy
Delay relative to video                  : 12ms
Stream size                              : 423 MiB (7%)
Title                                    : Castellano AC3 5.1  :::...CadagotoHD...:::
Default                                  : Yes
Forced                                   : Yes

Audio #2
ID                                       : 3
Format                                   : AC-3
Format/Info                              : Audio Coding 3
Mode extension                           : CM (complete main)
Format settings, Endianness              : Big
Codec ID                                 : A_AC3
Duration                                 : 2h 12mn
Bit rate mode                            : Constant
Bit rate                                 : 384 Kbps
Channel(s)                               : 6 channels
Channel positions                        : Front: L C R, Side: L R, LFE
Sampling rate                            : 48.0 KHz
Bit depth                                : 16 bits
Compression mode                         : Lossy
Stream size                              : 363 MiB (6%)
Title                                    : Español Latino AC3 5.1  :::...CadagotoHD...:::
Default                                  : No
Forced                                   : Yes

Audio #3
ID                                       : 4
Format                                   : DTS
Format/Info                              : Digital Theater Systems
Codec ID                                 : A_DTS
Duration                                 : 2h 12mn
Bit rate mode                            : Constant
Bit rate                                 : 1 510 Kbps
Channel(s)                               : 6 channels
Channel positions                        : Front: L C R, Side: L R, LFE
Sampling rate                            : 48.0 KHz
Bit depth                                : 24 bits
Compression mode                         : Lossy
Delay relative to video                  : 11ms
Stream size                              : 1.39 GiB (22%)
Title                                    : Ingles DTS   :::...CadagotoHD...:::
Language                                 : English
Default                                  : No
Forced                                   : No

Text #1
ID                                       : 5
Format                                   : UTF-8
Codec ID                                 : S_TEXT/UTF8
Codec ID/Info                            : UTF-8 Plain Text
Title                                    : Sub Español   :::...CadagotoHD...:::
Default                                  : No
Forced                                   : No

Text #2
ID                                       : 6
Format                                   : UTF-8
Codec ID                                 : S_TEXT/UTF8
Codec ID/Info                            : UTF-8 Plain Text
Title                                    : Sub Forzados  :::...CadagotoHD...:::
Default                                  : Yes
Forced                                   : Yes

Menu
00:00:00.000                             : en:00:00:00.000
00:04:01.241                             : en:00:04:01.241
00:10:22.914                             : en:00:10:22.914
00:20:08.791                             : en:00:20:08.791
00:27:05.207                             : en:00:27:05.207
00:37:29.164                             : en:00:37:29.164
00:47:43.569                             : en:00:47:43.569
00:58:51.653                             : en:00:58:51.653
01:07:42.433                             : en:01:07:42.433
01:15:01.038                             : en:01:15:01.038
01:22:34.199                             : en:01:22:34.199
01:30:29.799                             : en:01:30:29.799
01:37:02.066                             : en:01:37:02.066
01:46:52.031                             : en:01:46:52.031
01:53:48.989                             : en:01:53:48.989
02:02:54.534                             : en:02:02:54.534
Montaje Por::::...Cadagoto...::::

Sinopsis
- Adaptación de ‘Una princesa de Marte’, la primera novela fantástica de Edgar Rice Burroughs. John Carter es un veterano de la Guerra Civil norteamericana (1861-1865) que se halla en el planeta Marte. Producida por Disney-Pixar, combina imagen real y digital.














Links Intercambiables De 500 Mb!
(Abrir el link en tu Navegador, Eperar 8 Segundos Y Pulsar AQUI)

¡Descargar AQUI!
[Solo usuarios registrados a DowntWarez.Com puede ver los links. ]




Los Archivos .REV Reemplazan A Cualquiera de Los Demas Rars!

¡Aquellos Archivos Sustituyen Partes Off O Dañadas , Úsalos!