Sácame del paraíso[2011][BDRip 720p]AC3 5.1[Es-ESP][Es-LAT]DTS[En-US][Sub][Comedia]



Ficha Técnica
-TÍTULO ORIGINAL: Wanderlust
OTROS TÍTULOS: Sácame del paraíso / Locura en el Paraíso
AÑO: 2012
DURACIÓN: 98 min.
PAÍS: USA
DIRECTOR: David Wain
GUIÓN: David Wain, Ken Marino
MÚSICA: Craig Wedren
FOTOGRAFÍA: Michael Bonvillain
REPARTO: Jennifer Aniston, Paul Rudd, Malin Akerman, Ray Liotta
PRODUCTORA: Apatow Productions
GÉNERO: Comedia | Vida rural (Norteamérica)

Datos Técnicos

código:
Aporte Exclusivo Por::::...Cadagoto...::::
General
Unique ID                                : 236403717570100209220443377891803696440 (0xB1D9B32A3D4871358787F3C93CC88D38)
Complete name                            : D:\NL2QRB-user 8\CadagotoHD\Sacame.del.paraiso.BDrip.cadagotoHD\Sacame.del.paraiso.BDrip.7200p.TRIAL Exclusivo Por CadagotoHD.mkv
Format                                   : Matroska
Format version                           : Version 2
File size                                : 6.26 GiB
Duration                                 : 1h 38mn
Overall bit rate                         : 9 130 Kbps
Movie name                               : * Aporte Exclusivo Por * :::...Cadagoto...::: *
Encoded date                             : UTC 2012-06-24 02:20:29
Writing application                      : mkvmerge v3.4.0 ('Rapunzel') built on May 15 2010 09:38:20
Writing library                          : libebml v0.8.0 + libmatroska v0.9.0

Video
ID                                       : 1
Format                                   : AVC
Format/Info                              : Advanced Video Codec
Format profile                           : High@L4.1
Format settings, CABAC                   : Yes
Format settings, ReFrames                : 9 frames
Codec ID                                 : V_MPEG4/ISO/AVC
Duration                                 : 1h 38mn
Bit rate                                 : 6 600 Kbps
Width                                    : 1 280 pixels
Height                                   : 694 pixels
Display aspect ratio                     : 1.85:1
Frame rate                               : 23.976 fps
Color space                              : YUV
Chroma subsampling                       : 4:2:0
Bit depth                                : 8 bits
Scan type                                : Progressive
Bits/(Pixel*Frame)                       : 0.310
Stream size                              : 4.40 GiB (70%)
Title                                    : * Aporte Exclusivo Por * :::...Cadagoto...::: *
Writing library                          : x264 core 125 r2200 999b753
Encoding settings                        : cabac=1 / ref=9 / deblock=1:-3:-3 / analyse=0x3:0x113 / me=umh / subme=10 / psy=1 / psy_rd=1.15:0.00 / mixed_ref=1 / me_range=32 / chroma_me=1 / trellis=2 / 8x8dct=1 / cqm=0 / deadzone=21,11 / fast_pskip=0 / chroma_qp_offset=-2 / threads=18 / lookahead_threads=3 / sliced_threads=0 / nr=0 / decimate=0 / interlaced=0 / bluray_compat=0 / constrained_intra=0 / bframes=8 / b_pyramid=2 / b_adapt=2 / b_bias=0 / direct=3 / weightb=1 / open_gop=0 / weightp=2 / keyint=240 / keyint_min=24 / scenecut=40 / intra_refresh=0 / rc_lookahead=240 / rc=2pass / mbtree=1 / bitrate=6600 / ratetol=1.0 / qcomp=0.70 / qpmin=0 / qpmax=69 / qpstep=4 / cplxblur=20.0 / qblur=0.5 / ip_ratio=1.40 / aq=1:0.90
Language                                 : English
Default                                  : No
Forced                                   : No

Audio #1
ID                                       : 2
Format                                   : AC-3
Format/Info                              : Audio Coding 3
Mode extension                           : CM (complete main)
Format settings, Endianness              : Big
Codec ID                                 : A_AC3
Duration                                 : 1h 38mn
Bit rate mode                            : Constant
Bit rate                                 : 640 Kbps
Channel(s)                               : 6 channels
Channel positions                        : Front: L C R, Side: L R, LFE
Sampling rate                            : 48.0 KHz
Bit depth                                : 16 bits
Compression mode                         : Lossy
Stream size                              : 449 MiB (7%)
Title                                    : Español Latino AC3 5.1 :::...Cadagoto...:::
Default                                  : Yes
Forced                                   : Yes

Audio #2
ID                                       : 3
Format                                   : AC-3
Format/Info                              : Audio Coding 3
Mode extension                           : CM (complete main)
Format settings, Endianness              : Big
Codec ID                                 : A_AC3
Duration                                 : 1h 38mn
Bit rate mode                            : Constant
Bit rate                                 : 384 Kbps
Channel(s)                               : 6 channels
Channel positions                        : Front: L C R, Side: L R, LFE
Sampling rate                            : 48.0 KHz
Bit depth                                : 16 bits
Compression mode                         : Lossy
Stream size                              : 269 MiB (4%)
Title                                    : Castellano AC3 5.1  :::...Cadagoto...:::
Language                                 : Spanish
Default                                  : No
Forced                                   : Yes

Audio #3
ID                                       : 4
Format                                   : DTS
Format/Info                              : Digital Theater Systems
Codec ID                                 : A_DTS
Duration                                 : 1h 38mn
Bit rate mode                            : Constant
Bit rate                                 : 1 510 Kbps
Channel(s)                               : 6 channels
Channel positions                        : Front: L C R, Side: L R, LFE
Sampling rate                            : 48.0 KHz
Bit depth                                : 24 bits
Compression mode                         : Lossy
Delay relative to video                  : 11ms
Stream size                              : 1.03 GiB (17%)
Title                                    : Ingles DTS  :::...Cadagoto...:::
Language                                 : English
Default                                  : No
Forced                                   : No

Text #1
ID                                       : 5
Format                                   : UTF-8
Codec ID                                 : S_TEXT/UTF8
Codec ID/Info                            : UTF-8 Plain Text
Title                                    : Spanish
Language                                 : Spanish
Default                                  : No
Forced                                   : No

Text #2
ID                                       : 6
Format                                   : UTF-8
Codec ID                                 : S_TEXT/UTF8
Codec ID/Info                            : UTF-8 Plain Text
Title                                    : English
Language                                 : English
Default                                  : No
Forced                                   : No

Text #3
ID                                       : 7
Format                                   : UTF-8
Codec ID                                 : S_TEXT/UTF8
Codec ID/Info                            : UTF-8 Plain Text
Title                                    : Sub Forz :::...Cadagoto...:::
Default                                  : No
Forced                                   : Yes

Menu
00:00:00.000                             : en:00:00:00.000
00:05:10.894                             : en:00:05:10.894
00:09:37.160                             : en:00:09:37.160
00:14:10.308                             : en:00:14:10.308
00:17:44.480                             : en:00:17:44.480
00:24:51.407                             : en:00:24:51.407
00:30:08.181                             : en:00:30:08.181
00:35:12.319                             : en:00:35:12.319
00:40:33.514                             : en:00:40:33.514
00:47:04.905                             : en:00:47:04.905
00:52:36.195                             : en:00:52:36.195
00:57:17.476                             : en:00:57:17.476
01:03:12.998                             : en:01:03:12.998
01:08:06.291                             : en:01:08:06.291
01:12:11.244                             : en:01:12:11.244
01:16:45.559                             : en:01:16:45.559
01:21:18.457                             : en:01:21:18.457
01:24:55.799                             : en:01:24:55.799
01:28:34.476                             : en:01:28:34.476
01:32:03.768                             : en:01:32:03.768


Aporte Exclusivo Por::::...Cadagoto...::::
Sinopsis
- George (Paul Rudd) y Linda (Jennifer Aniston) son la típica pareja aquejada de estrés que vive en Manhattan. Cuando la empresa de George reduce la plantilla y lo echa a la calle, deciden irse a Atlanta a vivir con el insoportable hermano de George. Durante el viaje, George y Linda descubren Elysium, una idílica comunidad rural, cuyos habitantes tienen una espiritual visión del mundo: desprecian el dinero y todos los bienes materiales. El dilema está servido.






Links Intercambiables De 500 Mb!
(Abrir el link en tu Navegador, Eperar 8 Segundos Y Pulsar AQUI)

¡Descargar AQUI!
[Solo usuarios registrados a DowntWarez.Com puede ver los links. ]



Los Archivos .REV Reemplazan A Cualquiera de Los Demas Rars!

¡Aquellos Archivos Sustituyen Partes Off O Dañadas , Úsalos!