Votos de amor[2012][BDRip 720p]AC3 5.1[Es-LATINO]DTS[En-US][Sub][Romance]



Ficha Técnica
TÍTULO ORIGINAL: The Vow
OTROS TÍTULOS: Todos los días de mi vida / Votos de amor
AÑO: 2012
DURACIÓN: 104 min.
PAÍS: USA
DIRECTOR: Michael Sucsy
GUIÓN: Abby Kohn, Marc Silverstein, Jason Katims
MÚSICA: Michael Brook, Rachel Portman
FOTOGRAFÍA: Rogier Stoffers
REPARTO: Rachel McAdams, Channing Tatum, Sam Neill, Scott Speedman, Wendy Crewson, Jessica Lange
PRODUCTORA: Sony Pictures / Screen Gems / Spyglass Entertainment
GÉNERO: Romance. Drama | Drama romántico. Basado en hechos reales

Datos Técnicos

código:
Aporte Exclusivo Por::::...Cadagoto...::::
General
Unique ID                                : 215062625210278864173274332714769923251 (0xA1CB8E133DCCAEE18FBFCB236EB53CB3)
Complete name                            : D:\NL2QRB-user 8\CadagotoHD\Votos De Amor BDRip\The Vow 2012 BDRip 720p Español Latino Aporte Exclusivo Por Cadagoto.mkv
Format                                   : Matroska
Format version                           : Version 2
File size                                : 4.83 GiB
Duration                                 : 1h 43mn
Overall bit rate                         : 6 648 Kbps
Movie name                               : * Aporte Exclusivo Por * :::...Cadagoto...::: *
Encoded date                             : UTC 2012-06-23 01:32:57
Writing application                      : mkvmerge v3.4.0 ('Rapunzel') built on May 15 2010 09:38:20
Writing library                          : libebml v0.8.0 + libmatroska v0.9.0

Video
ID                                       : 1
Format                                   : AVC
Format/Info                              : Advanced Video Codec
Format profile                           : High@L4.1
Format settings, CABAC                   : Yes
Format settings, ReFrames                : 5 frames
Codec ID                                 : V_MPEG4/ISO/AVC
Duration                                 : 1h 43mn
Bit rate                                 : 4 498 Kbps
Width                                    : 1 280 pixels
Height                                   : 536 pixels
Display aspect ratio                     : 2.40:1
Frame rate                               : 23.976 fps
Color space                              : YUV
Chroma subsampling                       : 4:2:0
Bit depth                                : 8 bits
Scan type                                : Progressive
Bits/(Pixel*Frame)                       : 0.273
Stream size                              : 3.17 GiB (66%)
Title                                    : * Aporte Exclusivo Por * :::...Cadagoto...::: *
Writing library                          : x264 core 122 r2184 5c85e0a
Encoding settings                        : cabac=1 / ref=5 / deblock=1:0:0 / analyse=0x3:0x133 / me=umh / subme=8 / psy=1 / psy_rd=1.00:0.00 / mixed_ref=1 / me_range=16 / chroma_me=1 / trellis=1 / 8x8dct=1 / cqm=0 / deadzone=21,11 / fast_pskip=1 / chroma_qp_offset=-2 / threads=24 / sliced_threads=0 / nr=0 / decimate=1 / interlaced=0 / bluray_compat=0 / constrained_intra=0 / bframes=3 / b_pyramid=2 / b_adapt=1 / b_bias=0 / direct=1 / weightb=1 / open_gop=0 / weightp=2 / keyint=250 / keyint_min=23 / scenecut=40 / intra_refresh=0 / rc=2pass / mbtree=0 / bitrate=4498 / ratetol=1.0 / qcomp=0.60 / qpmin=0 / qpmax=69 / qpstep=4 / cplxblur=20.0 / qblur=0.5 / ip_ratio=1.40 / pb_ratio=1.30 / aq=1:1.00
Language                                 : English
Default                                  : No
Forced                                   : No

Audio #1
ID                                       : 2
Format                                   : AC-3
Format/Info                              : Audio Coding 3
Mode extension                           : CM (complete main)
Format settings, Endianness              : Big
Codec ID                                 : A_AC3
Duration                                 : 1h 43mn
Bit rate mode                            : Constant
Bit rate                                 : 640 Kbps
Channel(s)                               : 6 channels
Channel positions                        : Front: L C R, Side: L R, LFE
Sampling rate                            : 48.0 KHz
Bit depth                                : 16 bits
Compression mode                         : Lossy
Stream size                              : 476 MiB (10%)
Title                                    : Español Latino AC3 5.1 :::...Cadagoto...:::
Language                                 : Spanish
Default                                  : No
Forced                                   : No

Audio #2
ID                                       : 3
Format                                   : DTS
Format/Info                              : Digital Theater Systems
Codec ID                                 : A_DTS
Duration                                 : 1h 43mn
Bit rate mode                            : Constant
Bit rate                                 : 1 510 Kbps
Channel(s)                               : 6 channels
Channel positions                        : Front: L C R, Side: L R, LFE
Sampling rate                            : 48.0 KHz
Bit depth                                : 24 bits
Compression mode                         : Lossy
Delay relative to video                  : 11ms
Stream size                              : 1.10 GiB (23%)
Title                                    : Ingles DTS :::...Cadagoto...:::
Default                                  : No
Forced                                   : No

Text
ID                                       : 4
Format                                   : UTF-8
Codec ID                                 : S_TEXT/UTF8
Codec ID/Info                            : UTF-8 Plain Text
Title                                    : Sub Español :::...Cadagoto...:::
Default                                  : Yes
Forced                                   : No


Aporte Exclusivo Por::::...Cadagoto...::::
Sinopsis
Un accidente de coche deja a Paige (Rachel McAdams) en coma. Cuando se despierta ha perdido la memoria, y ni siquiera reconoce a su marido Leo (Channing Tatum), con el que llevaba poco tiempo casada. Leo tendrá entonces que trabajar para ganarse de nuevo el corazón de su amada esposa.







Links Intercambiables De 500 Mb!
(Abrir el link en tu Navegador, Eperar 8 Segundos Y Pulsar AQUI)

¡Descargar AQUI!
[Solo usuarios registrados a DowntWarez.Com puede ver los links. ]



Los Archivos .REV Reemplazan A Cualquiera de Los Demas Rars!

¡Aquellos Archivos Sustituyen Partes Off O Dañadas , Úsalos!