El Ataque Del Tiburón De Dos Cabezas[2012][BDRip 720p]AC3[Es-ESP]DTS[En-US][Sub][Acción]




Ficha Técnica
TÍTULO ORIGINAL 2-Headed Shark Attack (Two Headed Shark Attack)
AÑO 2012
DURACIÓN 88 min.
PAÍS [Estados Unidos]
DIRECTOR Christopher Ray
GUIÓN H. Perry Horton (Historia: Edward DeRuiter)
MÚSICA Chris Ridenhour
FOTOGRAFÍA Stuart Brereton
REPARTO Carmen Electra, Brooke Hogan, Charlie O'Connell, Gerald Webb, David Gallegos
PRODUCTORA The Global Asylum
GÉNERO Acción. Terror. Ciencia ficción | Animales. Tiburones

Datos Técnicos

código:
Aporte Exclusivo Por::::...Cadagoto...::::
General
Unique ID                                : 230849030969791674898151117692170075274 (0xADABE7F8A4C1224DB66994A6F61AFC8A)
Complete name                            : D:\NL2QRB-user 8\CadagotoHD\El.Ataque.Del.Tiburon.De.Dos.Cabezas\El.Ataque.Del.Tiburon.De.Dos.Cabezas.720p.Castellano.Cadagoto.mkv
Format                                   : Matroska
Format version                           : Version 2
File size                                : 4.49 GiB
Duration                                 : 1h 27mn
Overall bit rate                         : 7 305 Kbps
Movie name                               : -Aporte Exclusivo Por- :::...Cadagoto...:::
Encoded date                             : UTC 2012-06-21 08:45:50
Writing application                      : mkvmerge v3.4.0 ('Rapunzel') built on May 15 2010 09:38:20
Writing library                          : libebml v0.8.0 + libmatroska v0.9.0

Video
ID                                       : 1
Format                                   : AVC
Format/Info                              : Advanced Video Codec
Format profile                           : High@L3.1
Format settings, CABAC                   : Yes
Format settings, ReFrames                : 5 frames
Codec ID                                 : V_MPEG4/ISO/AVC
Duration                                 : 1h 27mn
Bit rate                                 : 6 476 Kbps
Width                                    : 1 280 pixels
Height                                   : 720 pixels
Display aspect ratio                     : 16:9
Frame rate                               : 23.976 fps
Color space                              : YUV
Chroma subsampling                       : 4:2:0
Bit depth                                : 8 bits
Scan type                                : Progressive
Bits/(Pixel*Frame)                       : 0.293
Stream size                              : 3.89 GiB (87%)
Title                                    : -Aporte Exclusivo Por- :::...Cadagoto...:::
Writing library                          : x264 core 120 r2164 da19765
Encoding settings                        : cabac=1 / ref=5 / deblock=1:0:0 / analyse=0x3:0x133 / me=umh / subme=7 / psy=1 / psy_rd=1.00:0.00 / mixed_ref=1 / me_range=16 / chroma_me=1 / trellis=1 / 8x8dct=1 / cqm=0 / deadzone=21,11 / fast_pskip=0 / chroma_qp_offset=-2 / threads=12 / sliced_threads=0 / nr=0 / decimate=1 / interlaced=0 / bluray_compat=0 / constrained_intra=0 / bframes=3 / b_pyramid=2 / b_adapt=2 / b_bias=0 / direct=3 / weightb=1 / open_gop=0 / weightp=2 / keyint=250 / keyint_min=23 / scenecut=40 / intra_refresh=0 / rc_lookahead=50 / rc=2pass / mbtree=1 / bitrate=6476 / ratetol=1.0 / qcomp=0.60 / qpmin=0 / qpmax=69 / qpstep=4 / cplxblur=20.0 / qblur=0.5 / ip_ratio=1.40 / aq=1:1.00
Language                                 : Spanish
Default                                  : No
Forced                                   : Yes

Audio #1
ID                                       : 2
Format                                   : AC-3
Format/Info                              : Audio Coding 3
Mode extension                           : CM (complete main)
Format settings, Endianness              : Big
Codec ID                                 : A_AC3
Duration                                 : 1h 27mn
Bit rate mode                            : Constant
Bit rate                                 : 192 Kbps
Channel(s)                               : 2 channels
Channel positions                        : Front: L R
Sampling rate                            : 48.0 KHz
Bit depth                                : 16 bits
Compression mode                         : Lossy
Stream size                              : 121 MiB (3%)
Title                                    : Castellanol AC3 5.1 :::...Cadagoto...:::
Language                                 : Spanish
Default                                  : No
Forced                                   : No

Audio #2
ID                                       : 3
Format                                   : AC-3
Format/Info                              : Audio Coding 3
Mode extension                           : CM (complete main)
Format settings, Endianness              : Big
Codec ID                                 : A_AC3
Duration                                 : 1h 27mn
Bit rate mode                            : Constant
Bit rate                                 : 640 Kbps
Channel(s)                               : 6 channels
Channel positions                        : Front: L C R, Side: L R, LFE
Sampling rate                            : 48.0 KHz
Bit depth                                : 16 bits
Compression mode                         : Lossy
Stream size                              : 402 MiB (9%)
Title                                    : Ingles AC3 5.1 :::...Cadagoto...:::
Language                                 : English
Default                                  : No
Forced                                   : Yes

Text #1
ID                                       : 4
Format                                   : UTF-8
Codec ID                                 : S_TEXT/UTF8
Codec ID/Info                            : UTF-8 Plain Text
Title                                    : Sub Castellano Forz  :::...Cadagoto...:::
Language                                 : Spanish
Default                                  : Yes
Forced                                   : Yes

Text #2
ID                                       : 5
Format                                   : UTF-8
Codec ID                                 : S_TEXT/UTF8
Codec ID/Info                            : UTF-8 Plain Text
Title                                    : Sub Castellano Completos  :::...Cadagoto...:::
Language                                 : Spanish
Default                                  : No
Forced                                   : No



Aporte Exclusivo Por::::...Cadagoto...::::
Sinopsis
Un tiburón de dos cabezas amenaza con acabar con todo lo que se encuentre a su paso.







Links Intercambiables De 500 Mb!
(Abrir el link en tu Navegador, Eperar 8 Segundos Y Pulsar AQUI)

¡Descargar AQUI!
[Solo usuarios registrados a DowntWarez.Com puede ver los links. ]




Los Archivos .REV Reemplazan A Cualquiera de Los Demas Rars!

¡Aquellos Archivos Sustituyen Partes Off O Dañadas , Úsalos!