Resultados 1 al 1 de 1
  1. #1
    Semi Experto
    Fecha de ingreso
    30 nov, 11
    Mensajes
    188
    Poder de reputación
    9
    Campeones, la Roja (en honor a la EURO 2008 y el Mundial 2010) [DVBRip] [Castellano] [1.15GB]



    TODOS MIS APORTES TIENEN UN 5% DE REGISTRO DE RECUPERACION PARA ARCHIVOS WINRAR
    TÍTULO ORIGINAL: Campeones, La Roja
    PAÍS: Espana
    FECHA DE ESTRENO: 9 de junio del 2012

    INFO DEL RIPEO
    código:
    Format                                   : AVI
    Format/Info                              : Audio Video Interleave
    Format profile                           : OpenDML
    File size                                : 1.14 GiB
    Duration                                 : 1h 29mn
    Overall bit rate                         : 1 837 Kbps
    Writing application                      : Lavf52.94.0
    
    Video
    ID                                       : 0
    Format                                   : AVC
    Format/Info                              : Advanced Video Codec
    Format profile                           : High@L3.1
    Format settings, CABAC                   : Yes
    Format settings, ReFrames                : 2 frames
    Codec ID                                 : H264
    Duration                                 : 1h 29mn
    Bit rate                                 : 1 500 Kbps
    Width                                    : 1 024 pixels
    Height                                   : 576 pixels
    Display aspect ratio                     : 16:9
    Frame rate mode                          : Variable
    Frame rate                               : 25.000 fps
    Color space                              : YUV
    Chroma subsampling                       : 4:2:0
    Bit depth                                : 8 bits
    Scan type                                : Progressive
    Bits/(Pixel*Frame)                       : 0.102
    Stream size                              : 958 MiB (82%)
    Writing library                          : x264 core 112 r1834 a51816a
    Encoding settings                        : cabac=1 / ref=2 / deblock=1:0:0 / analyse=0x3:0x113 / me=hex / subme=6 / psy=1 / psy_rd=1.00:0.00 / mixed_ref=0 / me_range=16 / chroma_me=1 / trellis=0 / 8x8dct=1 / cqm=0 / deadzone=21,11 / fast_pskip=1 / chroma_qp_offset=-2 / threads=4 / sliced_threads=0 / nr=0 / decimate=1 / interlaced=0 / constrained_intra=0 / bframes=3 / b_pyramid=0 / b_adapt=1 / b_bias=0 / direct=3 / weightb=1 / open_gop=0 / weightp=2 / keyint=250 / keyint_min=25 / scenecut=40 / intra_refresh=0 / rc_lookahead=40 / rc=2pass / mbtree=1 / bitrate=1500 / ratetol=1.0 / qcomp=0.60 / qpmin=10 / qpmax=51 / qpstep=4 / cplxblur=20.0 / qblur=0.5 / ip_ratio=1.41 / aq=1:1.00
    
    Audio
    ID                                       : 1
    Format                                   : MPEG Audio
    Format version                           : Version 1
    Format profile                           : Layer 3
    Mode                                     : Joint stereo
    Codec ID                                 : 55
    Codec ID/Hint                            : MP3
    Duration                                 : 1h 29mn
    Bit rate mode                            : Constant
    Bit rate                                 : 320 Kbps
    Channel(s)                               : 2 channels
    Sampling rate                            : 48.0 KHz
    Compression mode                         : Lossy
    Stream size                              : 204 MiB (17%)
    Alignment                                : Aligned on interleaves
    Interleave, duration                     : 24 ms (0.60 video frame)
    Writing library                          : LAME3.98.4

    Telecinco estreno este documental «¡Campeones! La Roja», sobre las victorias espanolas en la Eurocopa de 2008 y el Mundial de 2010. Se trata de un emotivo trabajo que incluye numerosas imagenes ineditas, como la arenga de Luis Aragones en el vestuario justo antes de la final. La pelicula se emitio despues de alguno de los partidos de Espana, durante la primera fase.





    rakk









    [Solo usuarios registrados a DowntWarez.Com puede ver los links. ]





    SI TENÉIS ALGuN PROBLEMA CON LOS LINKS, ETC. AVISAD POR MP.
    Última edición por kakaflo; 21/06/2012 a las 17:40 Razón: Añadidos nuevos servidores

Temas similares

  1. Aguila Roja-Temporadas 1,2,3 y 4 [DVBRip][Castellano][FJ]
    Por rapidoyfurioso en el foro Series de TV Gratis
    Respuestas: 0
    Último mensaje: 09/12/2011, 23:49
  2. Respuestas: 7
    Último mensaje: 19/11/2011, 14:35
  3. Super Campeones “El Campeonato Mundial Juvenil” l DVD
    Por viclktorT en el foro Series de Anime
    Respuestas: 0
    Último mensaje: 26/06/2011, 06:05
  4. Super Campeones “El Campeonato Mundial Juvenil” l DVD
    Por viclktorT en el foro Peliculas y Ovas de Anime
    Respuestas: 1
    Último mensaje: 10/05/2011, 18:34

Etiquetas para este tema

Permisos de Publicación

  • No puedes crear nuevos temas
  • No puedes responder temas
  • No puedes subir archivos adjuntos
  • No puedes editar tus mensajes
  •