Furia de Titanes 2 (2012) | 720p BRRip | Español Latino-Inglés | Acción |




Diez años después de los sucesos de “Furia de titanes”, Perseo (Sam Worthington) está decidido a llevar una vida tranquila con su hijo Helio. Sin embargo, los dioses, debilitados por la falta de fe de la humanidad, pierden el control sobre los Titanes, cuyo líder no es otro que Kronos, el padre de Zeus (Liam Neeson), Hades (Ralph Fiennes) y Poseidón (Danny Huston). Cuando Hades y Ares (Edgar Ramírez) llegan a un acuerdo con Kronos para capturar a Zeus, entonces Perseo tendrá que abandonar su apacible vida para rescatarlo, misión en la que mcuenta con la ayuda de Andrómeda (Rosamund Pike), Agénor (Toby Kebbell) y Hefesto (Bill Nighy).


TÍTULO ORIGINAL: Wrath of the Titans (Clash of the Titans 2)
OTROS TÍTULOS: Ira de Titanes (Furia de Titanes 2) / Furia de titanes 2
AÑO: 2012
DURACIÓN: 99 min.
PAÍS: USA
DIRECTOR: Jonathan Liebesman
GUIÓN: Greg Berlanti
MÚSICA: Javier Navarrete
FOTOGRAFÍA: Ben Davis
REPARTO: Sam Worthington, Liam Neeson, Ralph Fiennes, Bill Nighy, Rosamund Pike, Danny Huston, Toby Kebbell, Édgar Ramírez, John Bell
PRODUCTORA: Warner Bros. Pictures
GÉNERO: Fantástico. Acción | Antigua Grecia. Mitología. Secuela. 3-D



Formato: ISO
Tamaño: 2.6 GB
Audio 1: Español Latino, Inglés
Audio 2: Inglés
Subtitulos: Español, Inglés,
código:
Complete name                            : /disco2/camixeu4/public_html/rapidleech/files/Descargas-Directas/Wrath.of.the.Titans.2012.720p.BRRip.LATiNO.ENG.XviD.AC3-ViSiON.avi
Format                                   : AVI
Format/Info                              : Audio Video Interleave
Format profile                           : OpenDML
File size                                : 2.67 GiB
Duration                                 : 1h 39mn
Overall bit rate                         : 3 846 Kbps
Movie name                               : Wrath.of.the.Titans.2012.720p.BRRip.LATiNO.ENG.XviD.AC3-ViSiON
Recorded date                            : 12-06-2012
Writing application                      : VirtualDubMod 1.5.10.2 (build 2542/release)
Writing library                          : VirtualDubMod build 2542/release

Video
ID                                       : 0
Format                                   : MPEG-4 Visual
Format profile                           : Advanced Simple@L5
Format settings, BVOP                    : 1
Format settings, QPel                    : No
Format settings, GMC                     : No warppoints
Format settings, Matrix                  : Custom
Muxing mode                              : Packed bitstream
Codec ID                                 : XVID
Codec ID/Hint                            : XviD
Duration                                 : 1h 39mn
Bit rate                                 : 2 998 Kbps
Width                                    : 1 280 pixels
Height                                   : 720 pixels
Display aspect ratio                     : 16:9
Frame rate                               : 23.976 fps
Color space                              : YUV
Chroma subsampling                       : 4:2:0
Bit depth                                : 8 bits
Scan type                                : Progressive
Compression mode                         : Lossy
Bits/(Pixel*Frame)                       : 0.136
Stream size                              : 2.08 GiB (78%)
Writing library                          : XviD 1.2.1 (UTC 2008-12-04)

Audio #1
ID                                       : 1
Format                                   : AC-3
Format/Info                              : Audio Coding 3
Mode extension                           : CM (complete main)
Codec ID                                 : 2000
Duration                                 : 1h 39mn
Bit rate mode                            : Constant
Bit rate                                 : 384 Kbps
Channel(s)                               : 6 channels
Channel positions                        : Front: L C R, Side: L R, LFE
Sampling rate                            : 48.0 KHz
Bit depth                                : 16 bits
Compression mode                         : Lossy
Stream size                              : 273 MiB (10%)
Alignment                                : Split accross interleaves
Interleave, duration                     : 42 ms (1.00 video frame)
Interleave, preload duration             : 500 ms

Audio #2
ID                                       : 2
Format                                   : AC-3
Format/Info                              : Audio Coding 3
Mode extension                           : CM (complete main)
Codec ID                                 : 2000
Duration                                 : 1h 39mn
Bit rate mode                            : Constant
Bit rate                                 : 448 Kbps
Channel(s)                               : 6 channels
Channel positions                        : Front: L C R, Side: L R, LFE
Sampling rate                            : 48.0 KHz
Bit depth                                : 16 bits
Compression mode                         : Lossy
Stream size                              : 319 MiB (12%)
Alignment                                : Split accross interleaves
Interleave, duration                     : 42 ms (1.00 video frame)
Interleave, preload duration             : 500 ms











Links Protegidos!!!!
intercambiables



Contenido Oculto, debes [Solo usuarios registrados a DowntWarez.Com puede ver los links. ] para poder ver lo que hay dentro :)




Contenido Oculto, debes [Solo usuarios registrados a DowntWarez.Com puede ver los links. ] para poder ver lo que hay dentro :)


Contraseña:camix