Resultados 1 al 1 de 1
  1. #1
    Semi Experto Avatar de murixena
    Fecha de ingreso
    01 may, 12
    Mensajes
    155
    Poder de reputación
    0
    Amistad Animal (Dvbrip)(Español)(2009)
    [Solo usuarios registrados a DowntWarez.Com puede ver los links. ]



    Año: 2009
    Nacionalidad: Estados Unidos
    Productora: NGC Networks
    Género: Naturaleza
    Director: Stevi Calandra
    Guionista: Stevi Calandra, Colleen McGraw
    Duración: 00:50:01
    Versión: Dual
    Clasificación: TP



    Los animales pueden construir lazos de amistad realmente sorprendentes con otras especies, con seres humanos, o incluso con sus propias presas. Este documental nos muestra algunos ejemplos. Un elefante que cuida de un perro enfermo, una tortuga que adopta un bebé hipopótamo, un león que reconoce de inmediato a dos hombres un año después o una leona que rechaza una presa fácil cuando se encuentra con una cría de oryx. ¿Cómo es posible que se formen estas curiosas relaciones? ¿Qué es lo que obtienen los animales de estos compañeros, en principio, inesperados? Con una mirada conmovedora veremos las complejas emociones que hay detrás de estas soprendentes amistades.

    [Solo usuarios registrados a DowntWarez.Com puede ver los links. ]

    código:
    Format                                   : AVI
    Format/Info                              : Audio Video Interleave
    File size                                : 673 MiB
    Duration                                 : 49mn 52s
    Overall bit rate                         : 1 886 Kbps
    Writing application                      : DivX 3.4.1.0004
    IDFV                                     : DMF 2.0.0
    
    Video
    ID                                       : 0
    Format                                   : MPEG-4 Visual
    Format settings, BVOP                    : 1
    Format settings, QPel                    : No
    Format settings, GMC                     : No warppoints
    Format settings, Matrix                  : Default (H.263)
    Muxing mode                              : Packed bitstream
    Codec ID                                 : DX50
    Codec ID/Hint                            : DivX 5
    Duration                                 : 49mn 52s
    Bit rate                                 : 1 623 Kbps
    Width                                    : 740 pixels
    Height                                   : 460 pixels
    Display aspect ratio                     : 1.609
    Frame rate                               : 25.000 fps
    Color space                              : YUV
    Chroma subsampling                       : 4:2:0
    Bit depth                                : 8 bits
    Scan type                                : Progressive
    Compression mode                         : Lossy
    Bits/(Pixel*Frame)                       : 0.191
    Stream size                              : 579 MiB (86%)
    Title                                    : Video 
    Writing library                          : DivX 3330
    
    Audio
    ID                                       : 1
    Format                                   : MPEG Audio
    Format version                           : Version 1
    Format profile                           : Layer 3
    Mode                                     : Joint stereo
    Codec ID                                 : 55
    Codec ID/Hint                            : MP3
    Duration                                 : 49mn 52s
    Bit rate mode                            : Constant
    Bit rate                                 : 256 Kbps
    Channel(s)                               : 2 channels
    Sampling rate                            : 44.1 KHz
    Compression mode                         : Lossy
    Stream size                              : 91.3 MiB (14%)
    Alignment                                : Split accross interleaves
    Interleave, duration                     : 40 ms (1.00 video frame)
    Interleave, preload duration             : 500 ms
    Title                                    : Audio

    [Solo usuarios registrados a DowntWarez.Com puede ver los links. ]
    Última edición por murixena; 18/10/2012 a las 18:33

Temas similares

  1. La caldera de los Grizzly [DVBRip][Español][2009]
    Por Sefarad en el foro Documentales y TV Gratis
    Respuestas: 0
    Último mensaje: 30/05/2012, 05:25
  2. El arte islámico [Viajar][DVBRip][Español][2009]
    Por Sefarad en el foro Documentales y TV Gratis
    Respuestas: 0
    Último mensaje: 02/12/2011, 04:42
  3. WWE: Judgment Day 2009 [DvbRip Español Latino][RS]
    Por DJELNENE en el foro Series de TV Gratis
    Respuestas: 4
    Último mensaje: 13/07/2009, 05:02

Etiquetas para este tema

Permisos de Publicación

  • No puedes crear nuevos temas
  • No puedes responder temas
  • No puedes subir archivos adjuntos
  • No puedes editar tus mensajes
  •