TÍTULO ORIGINAL: Beika Sutorito no Borei
AÑO: 2002
DURACIÓN: 107 min.
IDIOMA: Japonés con subtítulos en español

INFO DEL RIPEO
código:
General
Complete name: Detective.Conan.Pelicula.06.El.fantasma.de.Baker.Street.SubEsp.avi
Format : AVI
Format/Info: Audio Video Interleave
File size: 604 MiB
Duration : 1h 47mn
Overall bit rate : 788 Kbps
Writing library: VirtualDub build 14328/release

Video
ID : 0
Format : MPEG-4 Visual
Format settings, BVOP: 1
Format settings, QPel: Yes
Format settings, GMC : 2 warppoints
Format settings, Matrix: Default (H.263)
Muxing mode: Packed bitstream
Codec ID : DX50
Codec ID/Hint: DivX 5
Duration : 1h 47mn
Bit rate : 651 Kbps
Width: 604 pixels
Height : 432 pixels
Display aspect ratio : 1.398
Frame rate : 23.976 fps
Color space: YUV
Chroma subsampling : 4:2:0
Bit depth: 8 bits
Scan type: Progressive
Compression mode : Lossy
Bits/(Pixel*Frame) : 0.104
Stream size: 499 MiB (83%)
Writing library: DivX 5.0.2 (UTC 2002-05-16)

Audio
ID : 1
Format : MPEG Audio
Format version : Version 1
Format profile : Layer 3
Mode : Joint stereo
Mode extension : MS Stereo
Codec ID : 55
Codec ID/Hint: MP3
Duration : 1h 47mn
Bit rate mode: Constant
Bit rate : 128 Kbps
Channel(s) : 2 channels
Sampling rate: 44.1 KHz
Compression mode : Lossy
Stream size: 97.9 MiB (16%)
Alignment: Split accross interleaves
Interleave, duration : 42 ms (1.00 video frame)
Interleave, preload duration : 467 ms

Un niño prodigio que vive en los EE. UU. se suicida después de crear un programa informático. Años más tarde este juego va a salir a la venta, pero antes de eso hay una fiesta de presentación donde acuden todo tipo de personas importantes: actores, cantantes, científicos, jefes de empresas, etc., incluso Yusaku Kudo, el padre de Shinichi, y el Profesor Agase. En esta fiesta hay 50 máquinas virtuales con el nuevo juego para que lo prueben 50 niños. En un principio los 50 niños son todos niños ricos, pero la Liga Juvenil de Detectives consigue colarse para poder jugar y Sonoko le regala su pase de cortesía a Ran para que no se aleje de Conan. Sin embargo, algo va mal, de repente el juego cobra "vida" y comienza a hablar. El juego consiste en superar unas pruebas en diferentes escenarios, si alguien falla, morirá. La única manera de salvar a los niños es que alguien consiga llegar hasta el final. Conan elegirá el escenario de Londres del siglo XIX, donde tendrá que descubrir la verdadera identidad de "Jack el Destripador".





Esto quiere decir que puedes descargar varios archivos desde distintos servidores a la vez.Esto resulta muy útil para gente sin cuentas premium o con conexiones lentas.


rakk







[Solo usuarios registrados a DowntWarez.Com puede ver los links. ]





SI TENÉIS ALGÚN PROBLEMA CON LOS LINKS, ETC. AVISAD POR MP.