Resultados 1 al 3 de 3
  1. #1
    Semi Experto
    Fecha de ingreso
    30 nov, 11
    Mensajes
    188
    Poder de reputación
    11
    Detective Conan Película 1: Rascacielos en peligro [DVDRip] [Castellano] [Mediafire]



    Título original: (Tokei Jikake no Matenro)
    Título en inglés: The Time-Bombed Skyscraper
    Título en español: Peligro en el rascacielos
    Título en Hispanoamérica: El rascacielos del tiempo
    Título en catalán: El gratacel explosiu
    Dirección: Kanetsugu Kodama
    Producción: Michihiko Suwa
    Guión: Kazunari Kochi
    Música: Katsuo Ohno
    Año: 1997
    Duración: 95 minutos

    INFO DEL RIPEO
    código:
    Format                                   : AVI
    Format/Info                              : Audio Video Interleave
    File size                                : 785 MiB
    Duration                                 : 1h 34mn
    Overall bit rate                         : 1 165 Kbps
    Writing library                          : VirtualDub build 32839/release
    
    Video
    ID                                       : 0
    Format                                   : MPEG-4 Visual
    Format profile                           : Simple@L3
    Format settings, BVOP                    : No
    Format settings, QPel                    : No
    Format settings, GMC                     : No warppoints
    Format settings, Matrix                  : Default (H.263)
    Codec ID                                 : XVID
    Codec ID/Hint                            : XviD
    Duration                                 : 1h 34mn
    Bit rate                                 : 1 028 Kbps
    Width                                    : 720 pixels
    Height                                   : 400 pixels
    Display aspect ratio                     : 16:9
    Frame rate                               : 23.976 fps
    Color space                              : YUV
    Chroma subsampling                       : 4:2:0
    Bit depth                                : 8 bits
    Scan type                                : Progressive
    Compression mode                         : Lossy
    Bits/(Pixel*Frame)                       : 0.149
    Stream size                              : 693 MiB (88%)
    Writing library                          : XviD 1.2.1 (UTC 2008-12-04)
    
    Audio
    ID                                       : 1
    Format                                   : MPEG Audio
    Format version                           : Version 1
    Format profile                           : Layer 3
    Mode                                     : Joint stereo
    Mode extension                           : MS Stereo
    Codec ID                                 : 55
    Codec ID/Hint                            : MP3
    Duration                                 : 1h 34mn
    Bit rate mode                            : Constant
    Bit rate                                 : 128 Kbps
    Channel(s)                               : 2 channels
    Sampling rate                            : 48.0 KHz
    Compression mode                         : Lossy
    Stream size                              : 86.2 MiB (11%)
    Alignment                                : Split accross interleaves
    Interleave, duration                     : 42 ms (1.00 video frame)
    Interleave, preload duration             : 500 ms

    La primera película de Detective Conan narra una aventura en la que intentará encontrar y capturar a un loco que ha puesto una serie de bombas por toda la ciudad. Después de ir bomba tras bomba, Conan deberá detener una antes de que destruya un rascacielos en el centro de la ciudad cuya potencia causaría millones de dólares en daños, cientos de muertos y que Ran no muera en la explosión ya que quedó con Shinichi para celebrar su cumpleaños a las 12 de la noche. ¿Quién está colocando las bombas? ¿Cuáles son sus motivos?





    Esto quiere decir que puedes descargar varios archivos desde distintos servidores a la vez.Esto resulta muy útil para gente sin cuentas premium o con conexiones lentas.


    rakk







    [Solo usuarios registrados a DowntWarez.Com puede ver los links. ]





    SI TENÉIS ALGÚN PROBLEMA CON LOS LINKS, ETC. AVISAD POR MP.

  2. #2
    Mini User
    Fecha de ingreso
    21 ene, 12
    Mensajes
    2
    Poder de reputación
    0
    Re: Detective Conan Película 1: Rascacielos en peligro [DVDRip] [Castellano] [Mediafire]
    gracias

  3. #3
    Mini User
    Fecha de ingreso
    20 feb, 09
    Mensajes
    1
    Poder de reputación
    0
    Re: Detective Conan Película 1: Rascacielos en peligro [DVDRip] [Castellano] [Mediafire]
    Cita Iniciado por kakaflo Ver mensaje



    Título original: (Tokei Jikake no Matenro)
    Título en inglés: The Time-Bombed Skyscraper
    Título en español: Peligro en el rascacielos
    Título en Hispanoamérica: El rascacielos del tiempo
    Título en catalán: El gratacel explosiu
    Dirección: Kanetsugu Kodama
    Producción: Michihiko Suwa
    Guión: Kazunari Kochi
    Música: Katsuo Ohno
    Año: 1997
    Duración: 95 minutos

    INFO DEL RIPEO
    código:
    Format                                   : AVI
    Format/Info                              : Audio Video Interleave
    File size                                : 785 MiB
    Duration                                 : 1h 34mn
    Overall bit rate                         : 1 165 Kbps
    Writing library                          : VirtualDub build 32839/release
    
    Video
    ID                                       : 0
    Format                                   : MPEG-4 Visual
    Format profile                           : Simple@L3
    Format settings, BVOP                    : No
    Format settings, QPel                    : No
    Format settings, GMC                     : No warppoints
    Format settings, Matrix                  : Default (H.263)
    Codec ID                                 : XVID
    Codec ID/Hint                            : XviD
    Duration                                 : 1h 34mn
    Bit rate                                 : 1 028 Kbps
    Width                                    : 720 pixels
    Height                                   : 400 pixels
    Display aspect ratio                     : 16:9
    Frame rate                               : 23.976 fps
    Color space                              : YUV
    Chroma subsampling                       : 4:2:0
    Bit depth                                : 8 bits
    Scan type                                : Progressive
    Compression mode                         : Lossy
    Bits/(Pixel*Frame)                       : 0.149
    Stream size                              : 693 MiB (88%)
    Writing library                          : XviD 1.2.1 (UTC 2008-12-04)
    
    Audio
    ID                                       : 1
    Format                                   : MPEG Audio
    Format version                           : Version 1
    Format profile                           : Layer 3
    Mode                                     : Joint stereo
    Mode extension                           : MS Stereo
    Codec ID                                 : 55
    Codec ID/Hint                            : MP3
    Duration                                 : 1h 34mn
    Bit rate mode                            : Constant
    Bit rate                                 : 128 Kbps
    Channel(s)                               : 2 channels
    Sampling rate                            : 48.0 KHz
    Compression mode                         : Lossy
    Stream size                              : 86.2 MiB (11%)
    Alignment                                : Split accross interleaves
    Interleave, duration                     : 42 ms (1.00 video frame)
    Interleave, preload duration             : 500 ms

    La primera película de Detective Conan narra una aventura en la que intentará encontrar y capturar a un loco que ha puesto una serie de bombas por toda la ciudad. Después de ir bomba tras bomba, Conan deberá detener una antes de que destruya un rascacielos en el centro de la ciudad cuya potencia causaría millones de dólares en daños, cientos de muertos y que Ran no muera en la explosión ya que quedó con Shinichi para celebrar su cumpleaños a las 12 de la noche. ¿Quién está colocando las bombas? ¿Cuáles son sus motivos?





    Esto quiere decir que puedes descargar varios archivos desde distintos servidores a la vez.Esto resulta muy útil para gente sin cuentas premium o con conexiones lentas.


    rakk







    [Solo usuarios registrados a DowntWarez.Com puede ver los links. ]





    SI TENÉIS ALGÚN PROBLEMA CON LOS LINKS, ETC. AVISAD POR MP.
    graciaaaaaaaaaaaaaaaaaaaaaaaaaaaaaaaaaas!!

Temas similares

  1. [Nintendo Wii] Detective Conan: La Investigación de Mirápolis [WiiScrubber][Aventuras][Castellano][Pal][WU]
    Por jmlsevillano en el foro Consolas Nintendo
    Respuestas: 0
    Último mensaje: 19/11/2011, 04:00
  2. [Nintendo Wii] Detective Conan [WII][PAL][MULTI5]
    Por lalin_x10 en el foro Consolas Nintendo
    Respuestas: 0
    Último mensaje: 18/11/2011, 03:25
  3. Detective Conan [001-124][MP4][50MB][LAT]
    Por avechuche en el foro Series de Anime
    Respuestas: 0
    Último mensaje: 27/10/2011, 07:36
  4. [Cap. Suelto] Detective Conan [CAP-630][MP4][250MB][JAP+SUB]
    Por avechuche en el foro Series de Anime
    Respuestas: 0
    Último mensaje: 12/10/2011, 04:48

Etiquetas para este tema

Permisos de Publicación

  • No puedes crear nuevos temas
  • No puedes responder temas
  • No puedes subir archivos adjuntos
  • No puedes editar tus mensajes
  •