V
( Los Visitantes ) | Temporada 2 | Capitulos [10/10]




Título: V ( Los Visitantes )
Título Original: V
Año: 2009
País: USA
Duración: 40 min.
Género: SciFi
Creador: Kenneth Johnson, Scott Peters
Productora: HDFilms / Warner Bros. Television



Sinopsis: Remake de la mítica serie de los años 80 titulada simplemente "V" (de "visitors" -visitantes-). Un día que cambiará para siempre la historia de la humanidad, un terremoto de extraña procedencia hace temblar los hogares de medio mundo. Las naves nodrizas de los Visitantes se posan sobre las ciudades más importantes del mundo, y toda la población mira al cielo asombrada. Vienen en son de paz, cambian conocimientos médicos por agua y, en apariencia, son como humanos... "V", creada originalmente por Kenneth Johnson, vuelve a la pantalla de la mano de Scott Peters, creador de otros éxitos del suspense y la ciencia ficción como "Los 4400". La serie está protagonizada por Elizabeth Mitchell (Juliet en "Perdidos") en el papel de Erica Evans, una agente antiterrorista del FBI; su hijo Tyler (Logan Huffman), que está fascinado por los visitantes; y Jack Landry (Joel Gretsch), un sacerdote que no confía demasiado en los alienígenas. Ellos serán el germen de la resistencia a los Visitantes, que estarán al mando de la pérfida Anna (Morena Baccarin).

[Solo usuarios registrados a DowntWarez.Com puede ver los links. ] [Solo usuarios registrados a DowntWarez.Com puede ver los links. ] [Solo usuarios registrados a DowntWarez.Com puede ver los links. ]

Temporada: 2
Nº de Capitulos: 10
Rip: DVBRip
Formato: 480p
Contenedor: AVI
Audio: Castellano
Tamaño: 350MB
Rippeo:
General
Complete name : R:\Upload\V - 2x02 [Nukety].avi
Format : AVI
Format/Info : Audio Video Interleave
File size : 350 MiB
Duration : 41mn 3s
Overall bit rate : 1 192 Kbps
Writing application : VirtualDubMod 1.5.10.2 (build 2542/release)
Writing library : VirtualDubMod build 2542/release

Video
ID : 0
Format : MPEG-4 Visual
Format profile : Advanced Simple@L5
Format settings, BVOP : 1
Format settings, QPel : No
Format settings, GMC : No warppoints
Format settings, Matrix : Default (H.263)
Muxing mode : Packed bitstream
Codec ID : XVID
Codec ID/Hint : XviD
Duration : 41mn 3s
Bit rate : 1 054 Kbps
Width : 720 pixels
Height : 576 pixels
Display aspect ratio : 5:4
Frame rate : 25.000 fps
Standard : PAL
Color space : YUV
Chroma subsampling : 4:2:0
Bit depth : 8 bits
Scan type : Progressive
Compression mode : Lossy
Bits/(Pixel*Frame) : 0.102
Stream size : 310 MiB (88%)
Writing library : XviD 1.2.1 (UTC 2008-12-04)

Audio
ID : 1
Format : MPEG Audio
Format version : Version 1
Format profile : Layer 3
Mode : Joint stereo
Mode extension : MS Stereo
Codec ID : 55
Codec ID/Hint : MP3
Duration : 41mn 3s
Bit rate mode : Constant
Bit rate : 128 Kbps
Channel(s) : 2 channels
Sampling rate : 44.1 KHz
Compression mode : Lossy
Stream size : 37.6 MiB (11%)
Alignment : Split accross interleaves
Interleave, duration : 40 ms (1.00 video frame)
Interleave, preload duration : 500 ms
Writing library : LAME3.98.2



Links Temporada 2

Uploaded [Solo usuarios registrados a DowntWarez.Com puede ver los links. ]

LetItBit [Solo usuarios registrados a DowntWarez.Com puede ver los links. ]

DepositFiles [Solo usuarios registrados a DowntWarez.Com puede ver los links. ]

Share-Online [Solo usuarios registrados a DowntWarez.Com puede ver los links. ]


[Solo usuarios registrados a DowntWarez.Com puede ver los links. ]


[Solo usuarios registrados a DowntWarez.Com puede ver los links. ]
[Solo usuarios registrados a DowntWarez.Com puede ver los links. ]