Resultados 1 al 4 de 4
  1. #1
    DW-Girl Avatar de Nukety
    Fecha de ingreso
    11 dic, 11
    Mensajes
    1,973
    Poder de reputación
    44
    Érase una Vez T.1 [HDiTunes 720p] [DUAL] [1.43GB] [ MultiHost ]
    Érase una Vez | Temporada 1 | Capitulos [22/22]



    · · · · · · · · · · · · · · · : : | Ficha Técnica | : : · · · · · · · · · · · · · · ·

    Título: Érase una Vez
    Título Original: Once Upon a Time
    Año: 2011
    País: USA
    Duración: 40 min.
    Género: Fantasy | Drama
    Creador: Adam Horowitz, Edward Kitsis
    Productora: ABC Studios


    · · · · · · · · · · · · · · · : : | Reparto | : : · · · · · · · · · · · · · · ·

    ✭ Jennifer Morrison | ✭ Jared Gilmore | ✭ Josh Dallas | ✭ Lana Parrilla | ✭ Ginnifer Goodwin | ✭ James Dornan | ✭ Robert Carlyle | ✭ Raphael Sbarge


    · · · · · · · · · · · · · · · : : | Sinopsis | : : · · · · · · · · · · · · · · ·

    Sinopsis: Mezclando el mundo real y los cuentos de hadas, se cuenta la historia de Emma Swan, una mujer cuya vida cambia cuando su hijo, al que había dado en adopción diez años antes, la encuentra. Él cree que su madre pertenece a un mundo irreal y que es la hija de Blancanieves.

    WebSite [Solo usuarios registrados a DowntWarez.Com puede ver los links. ]
    FilmAffinity [Solo usuarios registrados a DowntWarez.Com puede ver los links. ]
    IMDB [Solo usuarios registrados a DowntWarez.Com puede ver los links. ]
    YouTube [Solo usuarios registrados a DowntWarez.Com puede ver los links. ]


    Temporada: 1
    Nº de Capitulos: 22
    Rip: HDiTunes
    Formato: 720p
    Contenedor: MKV
    Audio: Castellano e Inglés
    Tamaño: 1.43GB
    General
    Format : Matroska
    Format version : Version 2
    File size : 1.43 GiB
    Duration : 42mn 43s
    Overall bit rate : 4 777 Kbps
    Encoded date : UTC 2012-01-13 14:13:08
    Writing application : mkvmerge v4.9.1 ('Ich will') creado el Jul 11 2011 23:53:15
    Writing library : libebml v1.2.1 + libmatroska v1.1.1

    Video
    ID : 1
    Format : AVC
    Format/Info : Advanced Video Codec
    Format profile : High@L3.1
    Format settings, CABAC : No
    Format settings, ReFrames : 2 frames
    Codec ID : V_MPEG4/ISO/AVC
    Duration : 42mn 43s
    Bit rate : 4 042 Kbps
    Width : 1 280 pixels
    Height : 720 pixels
    Display aspect ratio : 16:9
    Frame rate : 23.976 fps
    Color space : YUV
    Chroma subsampling : 4:2:0
    Bit depth : 8 bits
    Scan type : Progressive
    Bits/(Pixel*Frame) : 0.183
    Stream size : 1.21 GiB (85%)
    Language : English
    Default : Yes
    Forced : No
    Color primaries : BT.709-5, BT.1361, IEC 61966-2-4, SMPTE RP177
    Transfer characteristics : BT.709-5, BT.1361
    Matrix coefficients : BT.709-5, BT.1361, IEC 61966-2-4 709, SMPTE RP177

    Audio #1
    ID : 2
    Format : AC-3
    Format/Info : Audio Coding 3
    Mode extension : CM (complete main)
    Codec ID : A_AC3
    Duration : 42mn 43s
    Bit rate mode : Constant
    Bit rate : 256 Kbps
    Channel(s) : 2 channels
    Channel positions : Front: L R
    Sampling rate : 48.0 KHz
    Bit depth : 16 bits
    Compression mode : Lossy
    Stream size : 78.2 MiB (5%)
    Title : AC3 Español 2.0 @ 192 Kbps
    Language : Spanish
    Default : Yes
    Forced : Yes

    Audio #2
    ID : 3
    Format : AC-3
    Format/Info : Audio Coding 3
    Mode extension : CM (complete main)
    Codec ID : A_AC3
    Duration : 42mn 43s
    Bit rate mode : Constant
    Bit rate : 384 Kbps
    Channel(s) : 6 channels
    Channel positions : Front: L C R, Side: L R, LFE
    Sampling rate : 48.0 KHz
    Bit depth : 16 bits
    Compression mode : Lossy
    Stream size : 117 MiB (8%)
    Title : AC3 Ingles 5.1 @ 384 Kbps
    Language : English
    Default : No
    Forced : No

    Text #1
    ID : 4
    Format : UTF-8
    Codec ID : S_TEXT/UTF8
    Codec ID/Info : UTF-8 Plain Text
    Language : Spanish
    Default : Yes
    Forced : Yes

    Text #2
    ID : 5
    Format : UTF-8
    Codec ID : S_TEXT/UTF8
    Codec ID/Info : UTF-8 Plain Text
    Language : Spanish
    Default : No
    Forced : No

    Text #3
    ID : 6
    Format : UTF-8
    Codec ID : S_TEXT/UTF8
    Codec ID/Info : UTF-8 Plain Text
    Language : English
    Default : No
    Forced : No


    Contenido Oculto, debes [Solo usuarios registrados a DowntWarez.Com puede ver los links. ] para poder ver lo que hay dentro :)
    · · · · · · · · · · · · · · · : : | Otras Temporadas | : : · · · · · · · · · · · · · · ·


    [Solo usuarios registrados a DowntWarez.Com puede ver los links. ][Solo usuarios registrados a DowntWarez.Com puede ver los links. ]
    [Solo usuarios registrados a DowntWarez.Com puede ver los links. ][Solo usuarios registrados a DowntWarez.Com puede ver los links. ]


    [Solo usuarios registrados a DowntWarez.Com puede ver los links. ][Solo usuarios registrados a DowntWarez.Com puede ver los links. ]
    Todos mis aportes los subiré a Uploaded, si necesitas una cuenta premium en Up.to anímate y hazlo a través de mi link de referido http://ul.to/ref/2830534
    La contraseña de los aportes es "Nukety"

  2. #2
    Mini User
    Fecha de ingreso
    09 ago, 12
    Mensajes
    3
    Poder de reputación
    0
    Re: Érase una Vez T.1 [HDiTunes 720p] [DUAL] [1.43GB] [ MultiHost ]
    todos fuera de linea. Gracias

  3. #3
    DW-Girl Avatar de Nukety
    Fecha de ingreso
    11 dic, 11
    Mensajes
    1,973
    Poder de reputación
    44
    Re: Érase una Vez T.1 [HDiTunes 720p] [DUAL] [1.43GB] [ MultiHost ]

    . : : ✚ Añadido Nuevo Episodio : : .

    Capitulo: 06

  4. #4
    DW-Girl Avatar de Nukety
    Fecha de ingreso
    11 dic, 11
    Mensajes
    1,973
    Poder de reputación
    44
    Re: Érase una Vez T.1 [HDiTunes 720p] [DUAL] [1.43GB] [ MultiHost ]

    . : : ✚ Añadido Nuevo Episodio : : .

    Capitulo: 7

Temas similares

  1. Respuestas: 2
    Último mensaje: 13/03/2013, 17:16
  2. Rizzoli & Isles T.2 [HDiTunes 720p] [DUAL] [1.3GB] | FS US WU |
    Por Nukety en el foro Series de TV Gratis
    Respuestas: 1
    Último mensaje: 01/01/2013, 06:57
  3. Respuestas: 4
    Último mensaje: 24/03/2012, 13:08
  4. Respuestas: 1
    Último mensaje: 22/02/2012, 10:19
  5. Respuestas: 0
    Último mensaje: 31/12/2011, 09:59

Etiquetas para este tema

Permisos de Publicación

  • No puedes crear nuevos temas
  • No puedes responder temas
  • No puedes subir archivos adjuntos
  • No puedes editar tus mensajes
  •