Resultados 1 al 4 de 4
  1. #1
    DW-Girl Avatar de Nukety
    Fecha de ingreso
    11 dic, 11
    Mensajes
    1,973
    Poder de reputación
    45
    Pan Am T.1 [HDiTunes] [ESP] [350MB] [UL BS DF LE SF EB] 1 Link
    Pan Am | Temporada 1 | Capitulos [14/14]



    · · · · · · · · · · · · · · · : : | Ficha Técnica | : : · · · · · · · · · · · · · · ·

    Título: Pan Am
    Título Original: Pan Am
    Año: 2011
    País: USA
    Duración: 40 min.
    Género: Drama
    Creador: Jack Orman
    Productora: Sony Pictures Television


    · · · · · · · · · · · · · · · : : | Reparto | : : · · · · · · · · · · · · · · ·

    ✭ Christina Ricci | ✭ Margot Robbie | ✭ Kelli Garner | ✭ Karine Vanasse | ✭ Mike Vogel | ✭ Michael Mosley | ✭ Jeremy Davidson | ✭ Kal Parekh | ✭ David Harbour | ✭ Veanne Cox


    · · · · · · · · · · · · · · · : : | Sinopsis | : : · · · · · · · · · · · · · · ·

    Sinopsis: En plena década de los 60, en el mundo de los vuelos de lujo, los atractivos pilotos y azafatas no sólo están entrenados para ser glamurosos, sino que también tienen que encargarse de cualquier emergencia o situación fuera de lo común a bordo del avión. Líos, pasión, celos y espionaje… mientras vuelan a más de 30000 pies de altura.

    WebSite [Solo usuarios registrados a DowntWarez.Com puede ver los links. ]
    FilmAffinity [Solo usuarios registrados a DowntWarez.Com puede ver los links. ]
    IMDB [Solo usuarios registrados a DowntWarez.Com puede ver los links. ]
    YouTube [Solo usuarios registrados a DowntWarez.Com puede ver los links. ]


    Temporada: 1
    Nº de Capitulos: 14
    Rip: HDiTunes
    Formato: 480p
    Contenedor: AVI
    Audio: Castellano e Inglés
    Tamaño: 350MB
    General
    Complete name : P:\Edit\Pan Am - 1x09 [Nukety].avi
    Format : AVI
    Format/Info : Audio Video Interleave
    File size : 350 MiB
    Duration : 40mn 22s
    Overall bit rate : 1 212 Kbps
    Writing application : VirtualDubMod 1.5.10.2 (build 2542/release)
    Writing library : VirtualDubMod build 2542/release

    Video
    ID : 0
    Format : MPEG-4 Visual
    Format profile : Advanced Simple@L5
    Format settings, BVOP : 1
    Format settings, QPel : No
    Format settings, GMC : No warppoints
    Format settings, Matrix : Default (H.263)
    Muxing mode : Packed bitstream
    Codec ID : XVID
    Codec ID/Hint : XviD
    Duration : 40mn 22s
    Bit rate : 1 075 Kbps
    Width : 624 pixels
    Height : 352 pixels
    Display aspect ratio : 16:9
    Frame rate : 23.976 fps
    Color space : YUV
    Chroma subsampling : 4:2:0
    Bit depth : 8 bits
    Scan type : Progressive
    Compression mode : Lossy
    Bits/(Pixel*Frame) : 0.204
    Stream size : 310 MiB (89%)
    Writing library : XviD 1.2.1 (UTC 2008-12-04)

    Audio
    ID : 1
    Format : MPEG Audio
    Format version : Version 1
    Format profile : Layer 3
    Mode : Joint stereo
    Mode extension : MS Stereo
    Codec ID : 55
    Codec ID/Hint : MP3
    Duration : 40mn 19s
    Bit rate mode : Constant
    Bit rate : 128 Kbps
    Channel(s) : 2 channels
    Sampling rate : 44.1 KHz
    Compression mode : Lossy
    Stream size : 36.9 MiB (11%)
    Alignment : Split accross interleaves
    Interleave, duration : 42 ms (1.00 video frame)
    Interleave, preload duration : 500 ms


    Contenido Oculto, debes [Solo usuarios registrados a DowntWarez.Com puede ver los links. ] para poder ver lo que hay dentro :)

    · · · · · · · · · · · · · · · : : | Otras Temporadas | : : · · · · · · · · · · · · · · ·




    [Solo usuarios registrados a DowntWarez.Com puede ver los links. ][Solo usuarios registrados a DowntWarez.Com puede ver los links. ]
    Todos mis aportes los subiré a Uploaded, si necesitas una cuenta premium en Up.to anímate y hazlo a través de mi link de referido http://ul.to/ref/2830534
    La contraseña de los aportes es "Nukety"

  2. #2
    DW-Girl Avatar de Nukety
    Fecha de ingreso
    11 dic, 11
    Mensajes
    1,973
    Poder de reputación
    45
    Re: Pan Am T.1 [HDiTunes] [ESP] [350MB] [UL BS DF LE SF EB] 1 Link

    . : : ✚ Añadido Nuevo Episodio : : .

    Capitulo: 10

  3. #3
    DW-Girl Avatar de Nukety
    Fecha de ingreso
    11 dic, 11
    Mensajes
    1,973
    Poder de reputación
    45
    Re: Pan Am T.1 [HDiTunes] [ESP] [350MB] [UL BS DF LE SF EB] 1 Link

    . : : ✚ Añadido Último Episodio : : .
    FIN DE TEMPORADA


  4. #4
    DW-Girl Avatar de Nukety
    Fecha de ingreso
    11 dic, 11
    Mensajes
    1,973
    Poder de reputación
    45
    Re: Pan Am T.1 [HDiTunes] [ESP] [350MB] [UL BS DF LE SF EB] 1 Link
    . : : ⇪ Aporte Resubido : : .
    Todos mis aportes los subiré a Uploaded, si necesitas una cuenta premium en Up.to anímate y hazlo a través de mi link de referido http://ul.to/ref/2830534
    La contraseña de los aportes es "Nukety"

Temas similares

  1. Respuestas: 2
    Último mensaje: 28/08/2011, 22:42
  2. Voces inocentes (2004) [DVDR][NTSC][Latino][Multi+Megaupload]
    Por TotenKrieg en el foro Películas DVD
    Respuestas: 0
    Último mensaje: 01/08/2011, 14:59
  3. Arthur (2011) [DVDR][Ntsc][Comedia][Subt][Multiserver]
    Por TotenKrieg en el foro Películas DVD
    Respuestas: 0
    Último mensaje: 29/06/2011, 23:39

Etiquetas para este tema

Permisos de Publicación

  • No puedes crear nuevos temas
  • No puedes responder temas
  • No puedes subir archivos adjuntos
  • No puedes editar tus mensajes
  •