Resultados 1 al 3 de 3
  1. #1
    DW-Girl Avatar de Nukety
    Fecha de ingreso
    11 dic, 11
    Mensajes
    1,973
    Poder de reputación
    45
    Los Kennedy T.1 [DVBRip] [ESP] [350MB] [UL DF EB SF LE] 1 Link
    Los Kennedy | Temporada 1 | Capitulos [8/8]



    Título: Los Kennedy
    Título Original: The Kennedys
    Año: 2011
    País: USA
    Duración: 40 min.
    Género: Drama
    Creador: Jon Cassar
    Productora: History Channel / Asylum Entertainment / Muse Entertainment



    Sinopsis: Miniserie del canal History Channel sobre el clan de los Kennedy (ocho episodios). A pesar de estar concluida y tener un trailer en circulación, la cadena anunció a comienzos de 2011 que no la emitiría porque "el resultado no se ajusta a los criterios de la cadena". No obstante, se estrenará en Canadá en marzo y tendrá distribución internacional.

    [Solo usuarios registrados a DowntWarez.Com puede ver los links. ] [Solo usuarios registrados a DowntWarez.Com puede ver los links. ] [Solo usuarios registrados a DowntWarez.Com puede ver los links. ]

    Temporada: 1
    Nº de Capitulos: 8
    Rip: DVBRip
    Formato: 480p
    Contenedor: AVI
    Audio: Castellano
    Tamaño: 350MB
    Rippeo: ?!!
    General
    Complete name : P:\Edit\Los Kennedy - 1x03 [Nukety].avi
    Format : AVI
    Format/Info : Audio Video Interleave
    File size : 344 MiB
    Duration : 42mn 13s
    Overall bit rate : 1 138 Kbps

    Video
    ID : 0
    Format : MPEG-4 Visual
    Format profile : Advanced Simple@L5
    Format settings, BVOP : 2
    Format settings, QPel : No
    Format settings, GMC : No warppoints
    Format settings, Matrix : Default (H.263)
    Codec ID : XVID
    Codec ID/Hint : XviD
    Duration : 42mn 13s
    Bit rate : 997 Kbps
    Width : 624 pixels
    Height : 352 pixels
    Display aspect ratio : 16:9
    Frame rate : 25.000 fps
    Color space : YUV
    Chroma subsampling : 4:2:0
    Bit depth : 8 bits
    Scan type : Progressive
    Compression mode : Lossy
    Bits/(Pixel*Frame) : 0.182
    Stream size : 301 MiB (88%)
    Writing library : XviD 1.2.1 (UTC 2008-12-04)

    Audio
    ID : 1
    Format : MPEG Audio
    Format version : Version 1
    Format profile : Layer 3
    Codec ID : 55
    Codec ID/Hint : MP3
    Duration : 42mn 12s
    Source duration : 42mn 12s
    Bit rate mode : Constant
    Bit rate : 128 Kbps
    Channel(s) : 2 channels
    Sampling rate : 44.1 KHz
    Compression mode : Lossy
    Stream size : 38.6 MiB (11%)
    Alignment : Split accross interleaves
    Interleave, duration : 26 ms (0.65 video frame)
    Writing library : LAMEU



    Links Temporada 1

    Uploaded [Solo usuarios registrados a DowntWarez.Com puede ver los links. ]

    LetItBit [Solo usuarios registrados a DowntWarez.Com puede ver los links. ]

    DepositFiles [Solo usuarios registrados a DowntWarez.Com puede ver los links. ]

    Share-Online [Solo usuarios registrados a DowntWarez.Com puede ver los links. ]


    [Solo usuarios registrados a DowntWarez.Com puede ver los links. ]

    Todos mis aportes los subiré a Uploaded, si necesitas una cuenta premium en Up.to anímate y hazlo a través de mi link de referido http://ul.to/ref/2830534
    La contraseña de los aportes es "Nukety"

  2. #2
    DW-Girl Avatar de Nukety
    Fecha de ingreso
    11 dic, 11
    Mensajes
    1,973
    Poder de reputación
    45
    Re: Los Kennedy T.1 [DVBRip] [ESP] [350MB] [UL DF EB SF LE] 1 Link

    . : : ✚ Añadido Nuevo Episodio : : .

    Capitulo: 04

  3. #3
    DW-Girl Avatar de Nukety
    Fecha de ingreso
    11 dic, 11
    Mensajes
    1,973
    Poder de reputación
    45
    Re: Los Kennedy T.1 [DVBRip] [ESP] [350MB] [UL DF EB SF LE] 1 Link
    . : : ✚ Añadido Último Episodio y Fin Temporada : : .

Temas similares

  1. Respuestas: 2
    Último mensaje: 28/08/2011, 23:42
  2. Voces inocentes (2004) [DVDR][NTSC][Latino][Multi+Megaupload]
    Por TotenKrieg en el foro Películas DVD
    Respuestas: 0
    Último mensaje: 01/08/2011, 15:59
  3. Respuestas: 0
    Último mensaje: 27/07/2011, 20:34
  4. Los agentes del destino (2011) [DVD9][Latino+Inglés][Multi]
    Por TotenKrieg en el foro Películas DVD
    Respuestas: 0
    Último mensaje: 23/06/2011, 22:41

Etiquetas para este tema

Permisos de Publicación

  • No puedes crear nuevos temas
  • No puedes responder temas
  • No puedes subir archivos adjuntos
  • No puedes editar tus mensajes
  •