Resultados 1 al 2 de 2
  1. #1
    DW-Girl Avatar de Nukety
    Fecha de ingreso
    11 dic, 11
    Mensajes
    1,973
    Poder de reputación
    45
    Futurama T.2 [DVDRip] [ESP] [250MB] [19/19][UL SF LE DF] 1 Link
    Futurama | Temporada 2 | Capitulos [19/19]



    · · · · · · · · · · · · · · · : : | Ficha Técnica | : : · · · · · · · · · · · · · · ·

    Título: Futurama
    Título Original: Futurama
    Año: 1999
    País: USA
    Duración: 20 min.
    Género: Animation | Comedy | SciFi
    Creador: Matt Groening
    Productora: FOX


    · · · · · · · · · · · · · · · : : | Reparto | : : · · · · · · · · · · · · · · ·

    ✭ Bender | ✭ Fry | ✭ Leela | ✭ Dr. Zoidberg | ✭ Professor Farnsworth | ✭ Hermes | ✭ Amy | ✭ Nibbler | ✭ Zapp Branigan | ✭ Kif Kroker


    · · · · · · · · · · · · · · · : : | Sinopsis | : : · · · · · · · · · · · · · · ·

    Sinopsis: Serie de animación creada por Matt Groening (creador también de Los Simpson) y David X. Cohen (guionista también de Los Simpson). Ambientada en la ciudad de "Nueva Nueva York" en el año 3000, la serie comienza con Philip J. Fry, un joven repartidor de pizza neoyorquino fracasado y desmotivado que es criogénicamente congelado por accidente la Nochevieja de 1999. Mil años después es descongelado, encontrándose en Nueva Nueva York el 31 de diciembre de 2999. El intento de Fry por escapar de la entonces obligatoria asignación laboral como repartidor termina cuando es contratado en Planet Express, una pequeña compañía de mensajería intergaláctica propiedad de su sobrino lejano, como repartidor. La serie trata sobre las aventuras de Fry y sus colegas cuando viajan por el universo haciendo repartos para Planet Express.

    WebSite [Solo usuarios registrados a DowntWarez.Com puede ver los links. ]
    FilmAffinity [Solo usuarios registrados a DowntWarez.Com puede ver los links. ]
    IMDB [Solo usuarios registrados a DowntWarez.Com puede ver los links. ]
    YouTube [Solo usuarios registrados a DowntWarez.Com puede ver los links. ]


    Temporada: 2
    Nº de Capitulos: 19
    Rip: DVDRip
    Formato: 480p
    Contenedor: AVI
    Audio: Castellano
    Tamaño: 250MB
    Format : AVI
    Format/Info : Audio Video Interleave
    File size : 230 MiB
    Duration : 21mn 38s
    Overall bit rate : 1 486 Kbps
    Writing library : TMPGEnc 4.0 XPress Version. 4.7.7.307

    Video
    ID : 0
    Format : AVC
    Format/Info : Advanced Video Codec
    Format profile : High@L3.2
    Format settings, CABAC : Yes
    Format settings, ReFrames : 16 frames
    Codec ID : H264
    Duration : 6s 0ms
    Bit rate : 1 300 Kbps
    Width : 640 pixels
    Height : 480 pixels
    Display aspect ratio : 4:3
    Frame rate : 25.000 fps
    Color space : YUV
    Chroma subsampling : 4:2:0
    Bit depth : 8 bits
    Scan type : Progressive
    Bits/(Pixel*Frame) : 0.169
    Stream size : 199 MiB (87%)
    Writing library : x264 core 112 r1867bm 22bfd31
    Encoding settings : cabac=1 / ref=16 / deblock=1:1:1 / analyse=0x3:0x133 / me=umh / subme=10 / psy=1 / psy_rd=0.40:0.00 / mixed_ref=1 / me_range=24 / chroma_me=1 / trellis=2 / 8x8dct=1 / cqm=0 / deadzone=21,11 / fast_pskip=1 / chroma_qp_offset=-2 / threads=7 / sliced_threads=1 / slices=7 / nr=0 / decimate=1 / interlaced=0 / constrained_intra=0 / bframes=0 / weightp=2 / keyint=250 / keyint_min=25 / scenecut=40 / intra_refresh=0 / rc=abr / mbtree=0 / bitrate=1300 / ratetol=1.0 / qcomp=0.60 / qpmin=0 / qpmax=51 / qpstep=4 / ip_ratio=1.40 / aq=1:0.60

    Audio
    ID : 1
    Format : AC-3
    Format/Info : Audio Coding 3
    Mode extension : CM (complete main)
    Codec ID : 2000
    Duration : 21mn 38s
    Bit rate mode : Constant
    Bit rate : 192 Kbps
    Channel(s) : 2 channels
    Channel positions : Front: L R
    Sampling rate : 44.1 KHz
    Bit depth : 16 bits
    Compression mode : Lossy
    Delay relative to video : 35ms
    Stream size : 29.7 MiB (13%)
    Alignment : Aligned on interleaves
    Interleave, duration : 160 ms (4.01 video frames)
    Interleave, preload duration : 313 ms


    Links Temporada 2

    Uploaded [Solo usuarios registrados a DowntWarez.Com puede ver los links. ]

    · · · · · · · · · · · · · · · : : | Otras Temporadas | : : · · · · · · · · · · · · · · ·


    [Solo usuarios registrados a DowntWarez.Com puede ver los links. ]
    [Solo usuarios registrados a DowntWarez.Com puede ver los links. ]
    [Solo usuarios registrados a DowntWarez.Com puede ver los links. ]
    [Solo usuarios registrados a DowntWarez.Com puede ver los links. ]
    [Solo usuarios registrados a DowntWarez.Com puede ver los links. ]
    [Solo usuarios registrados a DowntWarez.Com puede ver los links. ]

    Todos mis aportes los subiré a Uploaded, si necesitas una cuenta premium en Up.to anímate y hazlo a través de mi link de referido http://ul.to/ref/2830534
    La contraseña de los aportes es "Nukety"

  2. #2
    DW-Girl Avatar de Nukety
    Fecha de ingreso
    11 dic, 11
    Mensajes
    1,973
    Poder de reputación
    45
    Re: Futurama T.2 [DVDRip] [ESP] [250MB] [19/19][UL SF LE DF] 1 Link
    . : : ⇪ Aporte Resubido : : .

Temas similares

  1. Respuestas: 2
    Último mensaje: 28/08/2011, 23:42
  2. Voces inocentes (2004) [DVDR][NTSC][Latino][Multi+Megaupload]
    Por TotenKrieg en el foro Películas DVD
    Respuestas: 0
    Último mensaje: 01/08/2011, 15:59
  3. Desconocido (2011) [DVDR][NTSC][Latino][Acción][Multi]
    Por TotenKrieg en el foro Películas DVD
    Respuestas: 0
    Último mensaje: 01/07/2011, 22:36

Etiquetas para este tema

Permisos de Publicación

  • No puedes crear nuevos temas
  • No puedes responder temas
  • No puedes subir archivos adjuntos
  • No puedes editar tus mensajes
  •