La película, que se basa en "The feather men?, una novela de Ranulph Fiennes, nos narrará la historia de un grupo de antiguos miembros de las fuerzas especiales británicas cuyos integrantes están siendo cazados por un equipo de asesinos, siendo su líder un individuo (Jason Statham) que en su día perteneció a los Navy Seal. De Niro interpretará a su mentor, mientras que Yvonne Strahvoski dará vida a su compañera sentimenal. Clive Owen se pondrá en la piel de un agente de campo que intenta proteger a los ex soldados y a sus familias.

código:
Video
ID                                       : 224 (0xE0)
Format                                   : MPEG Video
Format version                           : Version 2
Format profile                           : Main[MENTION=205224]MAIN[/MENTION]
Format settings, BVOP                    : Yes
Format settings, Matrix                  : Custom
Duration                                 : 32mn 55s
Bit rate mode                            : Variable
Bit rate                                 : 3 814 Kbps
Maximum bit rate                         : 9 800 Kbps
Width                                    : 720 pixels
Height                                   : 480 pixels
Display aspect ratio                     : 16:9
Frame rate                               : 23.976 fps
Standard                                 : NTSC
Color space                              : YUV
Chroma subsampling                       : 4:2:0
Bit depth                                : 8 bits
Scan type                                : Progressive
Scan order                               : 2:3 Pulldown
Compression mode                         : Lossy
Bits/(Pixel*Frame)                       : 0.460
Stream size                              : 898 MiB (88%)

Audio
ID                                       : 189 (0xBD)-128 (0x80)
Format                                   : AC-3
Format/Info                              : Audio Coding 3
Mode extension                           : CM (complete main)
Muxing mode                              : DVD-Video
Duration                                 : 32mn 54s
Bit rate mode                            : Constant
Bit rate                                 : 448 Kbps
Channel(s)                               : 6 channels
Channel positions                        : Front: L C R, Side: L R, LFE
Sampling rate                            : 48.0 KHz
Bit depth                                : 16 bits
Compression mode                         : Lossy
Stream size                              : 105 MiB (10%)





Links Intercambiables:

450 Megas:



[Solo usuarios registrados a DowntWarez.Com puede ver los links. ]
[Solo usuarios registrados a DowntWarez.Com puede ver los links. ]
[Solo usuarios registrados a DowntWarez.Com puede ver los links. ]
[Solo usuarios registrados a DowntWarez.Com puede ver los links. ]
[Solo usuarios registrados a DowntWarez.Com puede ver los links. ]
[Solo usuarios registrados a DowntWarez.Com puede ver los links. ]
[Solo usuarios registrados a DowntWarez.Com puede ver los links. ]
[Solo usuarios registrados a DowntWarez.Com puede ver los links. ]
[Solo usuarios registrados a DowntWarez.Com puede ver los links. ]



[Solo usuarios registrados a DowntWarez.Com puede ver los links. ]



[Solo usuarios registrados a DowntWarez.Com puede ver los links. ]
[Solo usuarios registrados a DowntWarez.Com puede ver los links. ]
[Solo usuarios registrados a DowntWarez.Com puede ver los links. ]
[Solo usuarios registrados a DowntWarez.Com puede ver los links. ]
[Solo usuarios registrados a DowntWarez.Com puede ver los links. ]
[Solo usuarios registrados a DowntWarez.Com puede ver los links. ]
[Solo usuarios registrados a DowntWarez.Com puede ver los links. ]
[Solo usuarios registrados a DowntWarez.Com puede ver los links. ]
[Solo usuarios registrados a DowntWarez.Com puede ver los links. ]


100 Megas:




[Solo usuarios registrados a DowntWarez.Com puede ver los links. ]



[Solo usuarios registrados a DowntWarez.Com puede ver los links. ]



[Solo usuarios registrados a DowntWarez.Com puede ver los links. ]



[Solo usuarios registrados a DowntWarez.Com puede ver los links. ]