Futurama | Temporada 6 | Capitulos [26/26]



Título: Futurama
Título Original: Futurama
Año: 1999
País: USA
Duración: 20 min.
Género: Animation | Comedy | SciFi
Creador: Matt Groening
Productora: FOX



Sinopsis: Serie de animación creada por Matt Groening (creador también de Los Simpson) y David X. Cohen (guionista también de Los Simpson). Ambientada en la ciudad de "Nueva Nueva York" en el año 3000, la serie comienza con Philip J. Fry, un joven repartidor de pizza neoyorquino fracasado y desmotivado que es criogénicamente congelado por accidente la Nochevieja de 1999. Mil años después es descongelado, encontrándose en Nueva Nueva York el 31 de diciembre de 2999. El intento de Fry por escapar de la entonces obligatoria asignación laboral como repartidor termina cuando es contratado en Planet Express, una pequeña compañía de mensajería intergaláctica propiedad de su sobrino lejano, como repartidor. La serie trata sobre las aventuras de Fry y sus colegas cuando viajan por el universo haciendo repartos para Planet Express.

[Solo usuarios registrados a DowntWarez.Com puede ver los links. ] [Solo usuarios registrados a DowntWarez.Com puede ver los links. ] [Solo usuarios registrados a DowntWarez.Com puede ver los links. ]

Temporada: 6
Nº de Capitulos: 26
Rip: HDiTunes
Formato: 480p
Contenedor: AVI
Audio: Castellano e Inglés
Tamaño: 250MB
Rippeo: Borju
Format : AVI
Format/Info : Audio Video Interleave
File size : 283 MiB
Duration : 21mn 38s
Overall bit rate : 1 829 Kbps
Writing application : VirtualDubMod 1.5.10.2 (build 2540/release)
Writing library : VirtualDubMod build 2540/release

Video
ID : 0
Format : MPEG-4 Visual
Format profile : Advanced Simple@L5
Format settings, BVOP : No
Format settings, QPel : No
Format settings, GMC : No warppoints
Format settings, Matrix : Default (H.263)
Codec ID : XVID
Codec ID/Hint : XviD
Duration : 21mn 38s
Bit rate : 1 495 Kbps
Width : 704 pixels
Height : 396 pixels
Display aspect ratio : 16:9
Frame rate : 23.976 fps
Color space : YUV
Chroma subsampling : 4:2:0
Bit depth : 8 bits
Scan type : Progressive
Compression mode : Lossy
Bits/(Pixel*Frame) : 0.224
Stream size : 231 MiB (82%)
Writing library : XviD 1.2.1 (UTC 2008-12-04)

Audio #1
ID : 1
Format : MPEG Audio
Format version : Version 1
Format profile : Layer 3
Codec ID : 55
Codec ID/Hint : MP3
Duration : 21mn 38s
Bit rate mode : Constant
Bit rate : 192 Kbps
Channel(s) : 2 channels
Sampling rate : 48.0 KHz
Compression mode : Lossy
Stream size : 29.7 MiB (10%)
Alignment : Aligned on interleaves
Interleave, duration : 42 ms (1.00 video frame)
Interleave, preload duration : 504 ms
Writing library : LAME3.98r
Encoding settings : -m s -V 4 -q 3 -lowpass 18.6 -b 192

Audio #2
ID : 2
Format : MPEG Audio
Format version : Version 1
Format profile : Layer 3
Codec ID : 55
Codec ID/Hint : MP3
Duration : 21mn 38s
Bit rate mode : Constant
Bit rate : 128 Kbps
Channel(s) : 2 channels
Sampling rate : 48.0 KHz
Compression mode : Lossy
Delay relative to video : 24ms
Stream size : 19.8 MiB (7%)
Alignment : Split accross interleaves
Interleave, duration : 42 ms (1.00 video frame)
Interleave, preload duration : 500 ms
Writing library : LAME3.97


Links Temporada 6

Uploaded [Solo usuarios registrados a DowntWarez.Com puede ver los links. ]

ShareFlare [Solo usuarios registrados a DowntWarez.Com puede ver los links. ]

LetItBit [Solo usuarios registrados a DowntWarez.Com puede ver los links. ]

DepositFiles [Solo usuarios registrados a DowntWarez.Com puede ver los links. ]


[Solo usuarios registrados a DowntWarez.Com puede ver los links. ]