Mentes Criminales | Temporada 3 | Capitulos [20/20]



Título: Mentes Criminales
Título Original: Criminal Minds
Año: 2005
País: USA
Duración: 60 min.
Género: Thriller
Creador: Jeff Davis
Productora: CBS



Sinopsis: Teleserie que narra las investigaciones de un equipo del FBI que estudian perfiles de las más importantes mentes criminales de los Estados Unidos. Su trabajo es capturar criminales. Su especialidad es pensar como ellos... El Agente Especial Jason Giseon (Mandy Patinkin) y Aaron Hotchner (Thomas Gibson) lideran el equipo de criminalistas de élite, perteneciente al FBI, expertos en analizar las mentes de los criminales. Cada miembro del equipo tiene su especialidad. Así, está Elle Greenway (Lola Glaudini), quien tiene una larga experiencia en delitos sexuales; Derek Morgan (Shemar Moore), especializado en crímenes de carácter obsesivos; el Agente Especial Dr. Spencer Reid (Mathew Gray Gubler), una especie de genio incomprendido cuyas habilidades sociales son tan escasas como elevado es su cociente intelectual; y Jennifer “JJ” Jareau (A.J. Cook), la novata. Con cada caso se esforzarán al máximo hasta dar con las pistas suficientes para poder atrapar a los peores y más peligrosos criminales...

[Solo usuarios registrados a DowntWarez.Com puede ver los links. ] [Solo usuarios registrados a DowntWarez.Com puede ver los links. ] [Solo usuarios registrados a DowntWarez.Com puede ver los links. ]

Temporada: 3
Nº de Capitulos: 20
Rip: HDTV
Formato: 480p
Contenedor: AVI
Audio: Castellano
Tamaño: 350MB
Rippeo: budstok
Format : AVI
Format/Info : Audio Video Interleave
File size : 345 MiB
Duration : 41mn 52s
Overall bit rate mode : Variable
Overall bit rate : 1 150 Kbps
Writing application : SpanishDub 1.5
Writing library : VirtualDub build 14328/release

Video
ID : 0
Format : MPEG-4 Visual
Format profile : Advanced Simple@L5
Format settings, BVOP : 2
Format settings, QPel : No
Format settings, GMC : No warppoints
Format settings, Matrix : Default (H.263)
Muxing mode : Packed bitstream
Codec ID : XVID
Codec ID/Hint : XviD
Duration : 41mn 52s
Bit rate : 1 018 Kbps
Width : 624 pixels
Height : 352 pixels
Display aspect ratio : 16:9
Frame rate : 25.000 fps
Original frame rate : 23.976 fps
Color space : YUV
Chroma subsampling : 4:2:0
Bit depth : 8 bits
Scan type : Progressive
Compression mode : Lossy
Bits/(Pixel*Frame) : 0.185
Stream size : 305 MiB (89%)
Writing library : XviD 1.1.2 (UTC 2006-11-01)

Audio
ID : 1
Format : MPEG Audio
Format version : Version 1
Format profile : Layer 3
Mode : Joint stereo
Mode extension : MS Stereo
Codec ID : 55
Codec ID/Hint : MP3
Duration : 41mn 52s
Bit rate mode : Variable
Bit rate : 119 Kbps
Channel(s) : 2 channels
Sampling rate : 48.0 KHz
Compression mode : Lossy
Delay relative to video : 8ms
Stream size : 35.6 MiB (10%)
Alignment : Aligned on interleaves
Interleave, duration : 24 ms (0.60 video frame)
Interleave, preload duration : 519 ms



Links Temporada 3

Uploaded [Solo usuarios registrados a DowntWarez.Com puede ver los links. ]

DepositFiles [Solo usuarios registrados a DowntWarez.Com puede ver los links. ]

LetItBit [Solo usuarios registrados a DowntWarez.Com puede ver los links. ]

ShareFlare [Solo usuarios registrados a DowntWarez.Com puede ver los links. ]




[Solo usuarios registrados a DowntWarez.Com puede ver los links. ]