Resultados 1 al 2 de 2
  1. #1
    DW-Girl Avatar de Nukety
    Fecha de ingreso
    11 dic, 11
    Mensajes
    1,973
    Poder de reputación
    44
    Descargar Serie Como Conoci a Vuestra Madre T.1 [HDTV 720p] [ESP] [650MB] [22/22] | Gratis
    Como Conoci a Vuestra Madre | Temporada 1 | Capitulos [22/22]



    Título: Como Conoci a Vuestra Madre
    Título Original: How I Met Your Mother
    Año: 2005
    País: USA
    Duración: 20 min.
    Género: Comedy
    Creador: Carter Bays
    Productora: CBS Television Studios



    Sinopsis: En 2030, el arquitecto Ted Mosby (Josh Radnor) decide contarle a sus dos hijos la historia de cómo conoció a la madre de estos. Así, se traslada hasta 2005, año en el que dos de sus mejores amigos -Marshall (Jason Segel) y Lily (Alyson Hannigan)- deciden casarse tras nueve años como pareja. Esa decisión hace que Ted, soltero empedernido al igual que Barney (Neil Patrick Harris), decida encontrar al amor de su vida. Curiosamente, aparece en ese instante la reportera canadiense y nueva amiga del grupo Robin (Cobie Smulders) y empieza la búsqueda de la misteriosa madre.

    + [Solo usuarios registrados a DowntWarez.Com puede ver los links. ]
    ERROR: [Solo usuarios registrados a DowntWarez.Com puede ver los links. ]esta caido o no tienes Flash instalado.


    [Solo usuarios registrados a DowntWarez.Com puede ver los links. ] [Solo usuarios registrados a DowntWarez.Com puede ver los links. ] [Solo usuarios registrados a DowntWarez.Com puede ver los links. ]

    Temporada: 1
    Nº de Capitulos: 22
    Rip: HDTV
    Formato: 720p
    Contenedor: MKV
    Audio: Castellano
    Tamaño: 650MB
    Rippeo: ??!
    Format : Matroska
    File size : 640 MiB
    Duration : 20mn 57s
    Overall bit rate : 4 267 Kbps
    Encoded date : UTC 2010-11-18 18:37:39
    Writing application : mkvmerge v4.2.0 ('No Talking') realizado en Jul 28 2010 18:38:23
    Writing library : libebml v1.0.0 + libmatroska v1.0.0

    Video
    ID : 1
    Format : AVC
    Format/Info : Advanced Video Codec
    Format profile : Main@L3.1
    Format settings, CABAC : No
    Format settings, ReFrames : 4 frames
    Muxing mode : Header stripping
    Codec ID : V_MPEG4/ISO/AVC
    Duration : 20mn 57s
    Bit rate : 4 000 Kbps
    Width : 1 280 pixels
    Height : 720 pixels
    Display aspect ratio : 16:9
    Frame rate : 25.000 fps
    Color space : YUV
    Chroma subsampling : 4:2:0
    Bit depth : 8 bits
    Scan type : Progressive
    Bits/(Pixel*Frame) : 0.174
    Stream size : 579 MiB (91%)
    Writing library : x264 core 107 r1745 4785e8e
    Encoding settings : cabac=0 / ref=1 / deblock=0:0:0 / analyse=0:0 / me=dia / subme=0 / psy=1 / psy_rd=0.00:0.00 / mixed_ref=0 / me_range=16 / chroma_me=1 / trellis=0 / 8x8dct=0 / cqm=0 / deadzone=21,11 / fast_pskip=1 / chroma_qp_offset=0 / threads=7 / sliced_threads=0 / nr=0 / decimate=1 / interlaced=0 / constrained_intra=0 / bframes=3 / b_pyramid=2 / b_adapt=0 / b_bias=0 / direct=1 / weightb=0 / open_gop=0 / weightp=2 / keyint=250 / keyint_min=25 / scenecut=0 / intra_refresh=0 / rc=abr / mbtree=0 / bitrate=4000 / ratetol=1.0 / qcomp=0.60 / qpmin=10 / qpmax=51 / qpstep=4 / ip_ratio=1.40 / pb_ratio=1.30 / aq=0

    Audio
    ID : 2
    Format : AC-3
    Format/Info : Audio Coding 3
    Mode extension : CM (complete main)
    Muxing mode : Header stripping
    Codec ID : A_AC3
    Duration : 20mn 57s
    Bit rate mode : Constant
    Bit rate : 320 Kbps
    Channel(s) : 2 channels
    Channel positions : Front: L R
    Sampling rate : 48.0 KHz
    Bit depth : 16 bits
    Compression mode : Lossy
    Stream size : 48.0 MiB (7%)



    Links Temporada 1
    Uploadstation: [Solo usuarios registrados a DowntWarez.Com puede ver los links. ]
    Fileserve: [Solo usuarios registrados a DowntWarez.Com puede ver los links. ]
    Filejungle: [Solo usuarios registrados a DowntWarez.Com puede ver los links. ]
    Filesonic: [Solo usuarios registrados a DowntWarez.Com puede ver los links. ]
    Uploaded: [Solo usuarios registrados a DowntWarez.Com puede ver los links. ]


    [Solo usuarios registrados a DowntWarez.Com puede ver los links. ]


    [Solo usuarios registrados a DowntWarez.Com puede ver los links. ]
    [Solo usuarios registrados a DowntWarez.Com puede ver los links. ]
    [Solo usuarios registrados a DowntWarez.Com puede ver los links. ]
    [Solo usuarios registrados a DowntWarez.Com puede ver los links. ]
    [Solo usuarios registrados a DowntWarez.Com puede ver los links. ]
    [Solo usuarios registrados a DowntWarez.Com puede ver los links. ]
    Todos mis aportes los subiré a Uploaded, si necesitas una cuenta premium en Up.to anímate y hazlo a través de mi link de referido http://ul.to/ref/2830534
    La contraseña de los aportes es "Nukety"

  2. #2
    Mini User
    Fecha de ingreso
    20 mar, 12
    Mensajes
    1
    Poder de reputación
    0
    Re: Descargar Serie Como Conoci a Vuestra Madre T.1 [HDTV 720p] [ESP] [650MB] [22/22] | Gratis
    Hola, supongo que todavía tienes los archivos. Era por si podías crear un torrent (son muchísimo mejor que las descargas) La verdad es que se te agradecería muchísimo. Ademas de que el tiempo de descarga seria muy inferior. Ya me dirás algo

Temas similares

  1. [Tutorial] Tutorial válido para todas las versiones de Wii incluyendo la versión 4.3
    Por zidane11 en el foro Consolas Nintendo
    Respuestas: 1
    Último mensaje: 12/01/2013, 03:18
  2. Respuestas: 0
    Último mensaje: 11/01/2012, 07:07

Etiquetas para este tema

Permisos de Publicación

  • No puedes crear nuevos temas
  • No puedes responder temas
  • No puedes subir archivos adjuntos
  • No puedes editar tus mensajes
  •