Hope (Raising Hope) | Temporada 1 | Capitulos [22/22]



Título: Hope (Raising Hope)
Título Original: Hope (Raising Hope)
Año: 2010
País: USA
Duración: 20 min.
Género: Comedy
Creador: Greg Garcia
Productora: 20th Century Fox Television



Sinopsis: Raising Hope' sigue a un joven padre de familia que va a tener que contar con sus amigos y su familia para ayudarle a educar a su bebé cuando la madre, con la que pasó sólo una noche, es condenada a muerte.
20 minutos semanales con la historia de un chico de 25 años que de repente se encuentra al cuidado de un bebé como padre soltero. Su (inevitablemente friki) familia le echará una mano, claro, en lo que es una nueva travesura de Greg Garcia, responsable de My name is Earl. Es del creador de ‘My name is Earl’ pero con un trailer lleno de clichés relacionados con la temática, pero con chistes muy graciosos.

+ [Solo usuarios registrados a DowntWarez.Com puede ver los links. ]
ERROR: [Solo usuarios registrados a DowntWarez.Com puede ver los links. ]esta caido o no tienes Flash instalado.


[Solo usuarios registrados a DowntWarez.Com puede ver los links. ] [Solo usuarios registrados a DowntWarez.Com puede ver los links. ] [Solo usuarios registrados a DowntWarez.Com puede ver los links. ]

Temporada: 1
Nº de Capitulos: 22
Rip: HDiTunes
Formato: 720p
Contenedor: MKV
Audio: Castellano e Inglés
Tamaño: 800MB
Rippeo: Kikebcn
Format : Matroska
File size : 818 MiB
Duration : 23mn 18s
Overall bit rate : 4 908 Kbps
Encoded date : UTC 2011-08-12 10:17:41
Writing application : mkvmerge v3.2.0 ('Beginnings') built on Feb 12 2010 16:46:17
Writing library : libebml v0.7.9 + libmatroska v0.8.1

Video
ID : 1
Format : AVC
Format/Info : Advanced Video Codec
Format profile : High@L3.1
Format settings, CABAC : No
Format settings, ReFrames : 2 frames
Codec ID : V_MPEG4/ISO/AVC
Duration : 23mn 18s
Bit rate : 3 979 Kbps
Width : 1 280 pixels
Height : 720 pixels
Display aspect ratio : 16:9
Frame rate : 23.976 fps
Color space : YUV
Chroma subsampling : 4:2:0
Bit depth : 8 bits
Scan type : Progressive
Bits/(Pixel*Frame) : 0.180
Stream size : 663 MiB (81%)
Language : English
Color primaries : BT.709-5, BT.1361, IEC 61966-2-4, SMPTE RP177
Transfer characteristics : BT.709-5, BT.1361
Matrix coefficients : BT.709-5, BT.1361, IEC 61966-2-4 709, SMPTE RP177

Audio #1
ID : 2
Format : AC-3
Format/Info : Audio Coding 3
Mode extension : CM (complete main)
Codec ID : A_AC3
Duration : 23mn 18s
Bit rate mode : Constant
Bit rate : 448 Kbps
Channel(s) : 2 channels
Channel positions : Front: L R
Sampling rate : 44.1 KHz
Bit depth : 16 bits
Compression mode : Lossy
Stream size : 74.7 MiB (9%)
Language : Spanish

Audio #2
ID : 3
Format : AC-3
Format/Info : Audio Coding 3
Mode extension : CM (complete main)
Codec ID : A_AC3
Duration : 23mn 18s
Bit rate mode : Constant
Bit rate : 384 Kbps
Channel(s) : 6 channels
Channel positions : Front: L C R, Side: L R, LFE
Sampling rate : 48.0 KHz
Bit depth : 16 bits
Compression mode : Lossy
Stream size : 64.0 MiB (8%)
Language : English

Text #1
ID : 4
Format : UTF-8
Codec ID : S_TEXT/UTF8
Codec ID/Info : UTF-8 Plain Text
Language : Spanish

Text #2
ID : 5
Format : UTF-8
Codec ID : S_TEXT/UTF8
Codec ID/Info : UTF-8 Plain Text
Language : English


Links Temporada 1
Uploadstation: [Solo usuarios registrados a DowntWarez.Com puede ver los links. ]
Fileserve: [Solo usuarios registrados a DowntWarez.Com puede ver los links. ]
Filejungle: [Solo usuarios registrados a DowntWarez.Com puede ver los links. ]
Uploaded: [Solo usuarios registrados a DowntWarez.Com puede ver los links. ]




[Solo usuarios registrados a DowntWarez.Com puede ver los links. ]