Resultados 1 al 2 de 2
  1. #1
    DW-Girl Avatar de Nukety
    Fecha de ingreso
    11 dic, 11
    Mensajes
    1,973
    Poder de reputación
    45
    Breaking Bad T.3 [HDiTunes 720p] [DUAL] [1.5GB] [13/13] | FS US FJ UL FSO |
    Breaking Bad | Temporada 03 | Capitulos [13/13]



    · · · · · · · · · · · · · · · : : | Ficha Técnica | : : · · · · · · · · · · · · · · ·

    Título: Breaking Bad
    Título Original: Breaking Bad
    Año: 2008
    País: USA
    Duración: 40 min.
    Género: Drama
    Creador: Vince Gilligan
    Productora: Gran Via Productions / High Bridge Productions / Sony Pictures Television


    · · · · · · · · · · · · · · · : : | Reparto | : : · · · · · · · · · · · · · · ·


    ★ Bryan Cranston ★ Aaron Paul ★ Anna Gunn ★ RJ Mitte ★ Dean Norris ★ Betsy Brandt ★ Giancarlo Esposito ★ Bob Odenkirk ★ Steven Michael Quezada ★ Krysten Ritter

    · · · · · · · · · · · · · · · : : | Sinopsis | : : · · · · · · · · · · · · · · ·

    Breaking Bad se centra en Walter White (Bryan Cranston), un profesor de cincuenta años que enseña química en un instituto de Albuquerque (Nuevo México). Walter se convierte en criminal después de que le diagnostiquen un cáncer pulmonar y comienza a cocinar metanfetamina junto con su antiguo alumno Jesse Pinkman (Aaron Paul) con el fin de asegurar el futuro de su familia.



    WebSite [Solo usuarios registrados a DowntWarez.Com puede ver los links. ]
    FilmAffinity [Solo usuarios registrados a DowntWarez.Com puede ver los links. ]
    IMDB [Solo usuarios registrados a DowntWarez.Com puede ver los links. ]
    YouTube [Solo usuarios registrados a DowntWarez.Com puede ver los links. ]


    · · · · · · · · · · · · · · · : : | Media Info | : : · · · · · · · · · · · · · · ·

    Temporada: 03
    Nº de Capitulos: 13
    Rip: BDRip
    Formato: 720p
    Contenedor: MKV
    Audio: Castellano e Inglés
    Tamaño: 2500 MB
    Rippeo: xCarles
    Media Info
    código:
    General
    Format                                   : Matroska
    Format version                           : Version 2
    File size                                : 2.58 GiB
    Duration                                 : 47mn 13s
    Overall bit rate                         : 7 831 Kbps
    
    
    Video
    ID                                       : 1
    Format                                   : AVC
    Format/Info                              : Advanced Video Codec
    Format profile                           : High@L4.1
    Format settings, CABAC                   : Yes
    Format settings, ReFrames                : 9 frames
    Muxing mode                              : Header stripping
    Codec ID                                 : V_MPEG4/ISO/AVC
    Duration                                 : 47mn 13s
    Bit rate                                 : 7 000 Kbps
    Width                                    : 1 280 pixels
    Height                                   : 720 pixels
    Display aspect ratio                     : 16:9
    Frame rate mode                          : Constant
    Frame rate                               : 23.976 fps
    Color space                              : YUV
    Chroma subsampling                       : 4:2:0
    Bit depth                                : 8 bits
    Scan type                                : Progressive
    Bits/(Pixel*Frame)                       : 0.317
    Stream size                              : 2.26 GiB (87%)
    Writing library                          : x264 core 114 r1900 60ef1f8
    Encoding settings                        : cabac=1 / ref=9 / deblock=1:-3:-3 / analyse=0x3:0x113 / me=umh / subme=9 / psy=1 / psy_rd=1.00:0.00 / mixed_ref=1 / me_range=32 / chroma_me=1 / trellis=1 / 8x8dct=1 / cqm=0 / deadzone=21,11 / fast_pskip=0 / chroma_qp_offset=-2 / threads=18 / sliced_threads=0 / nr=0 / decimate=0 / interlaced=0 / constrained_intra=0 / bframes=6 / b_pyramid=2 / b_adapt=1 / b_bias=0 / direct=1 / weightb=1 / open_gop=0 / weightp=2 / keyint=250 / keyint_min=23 / scenecut=40 / intra_refresh=0 / rc_lookahead=40 / rc=2pass / mbtree=1 / bitrate=7000 / ratetol=1.0 / qcomp=0.60 / qpmin=0 / qpmax=69 / qpstep=4 / cplxblur=20.0 / qblur=0.5 / ip_ratio=1.40 / aq=1:0.80
    Language                                 : Spanish
    Default                                  : Yes
    Forced                                   : Yes
    
    Audio #1
    ID                                       : 2
    Format                                   : AC-3
    Format/Info                              : Audio Coding 3
    Mode extension                           : CM (complete main)
    Format settings, Endianness              : Big
    Muxing mode                              : Header stripping
    Codec ID                                 : A_AC3
    Duration                                 : 47mn 13s
    Bit rate mode                            : Constant
    Bit rate                                 : 192 Kbps
    Channel(s)                               : 2 channels
    Channel positions                        : Front: L R
    Sampling rate                            : 48.0 KHz
    Bit depth                                : 16 bits
    Compression mode                         : Lossy
    Stream size                              : 64.9 MiB (2%)
    Language                                 : Spanish
    Default                                  : Yes
    Forced                                   : Yes
    
    Audio #2
    ID                                       : 3
    Format                                   : AC-3
    Format/Info                              : Audio Coding 3
    Mode extension                           : CM (complete main)
    Format settings, Endianness              : Big
    Muxing mode                              : Header stripping
    Codec ID                                 : A_AC3
    Duration                                 : 47mn 13s
    Bit rate mode                            : Constant
    Bit rate                                 : 640 Kbps
    Channel(s)                               : 6 channels
    Channel positions                        : Front: L C R, Side: L R, LFE
    Sampling rate                            : 48.0 KHz
    Bit depth                                : 16 bits
    Compression mode                         : Lossy
    Stream size                              : 216 MiB (8%)
    Language                                 : English
    Default                                  : No
    Forced                                   : No
    
    Text #1
    ID                                       : 4
    Format                                   : UTF-8
    Codec ID                                 : S_TEXT/UTF8
    Codec ID/Info                            : UTF-8 Plain Text
    Language                                 : Spanish
    Default                                  : Yes
    Forced                                   : Yes
    
    Text #2
    ID                                       : 5
    Format                                   : UTF-8
    Codec ID                                 : S_TEXT/UTF8
    Codec ID/Info                            : UTF-8 Plain Text
    Language                                 : Spanish
    Default                                  : No
    Forced                                   : No
    
    Text #3
    ID                                       : 6
    Format                                   : UTF-8
    Codec ID                                 : S_TEXT/UTF8
    Codec ID/Info                            : UTF-8 Plain Text
    Language                                 : English
    Default                                  : No
    Forced                                   : No

    · · · · · · · · · · · · · · · : : | Links | : : · · · · · · · · · · · · · · ·

    [Solo usuarios registrados a DowntWarez.Com puede ver los links. ]
    · · · · · · · · · · · · · · · · · · · · · · · · · · · · · · · · · · · · · · · · · ·

    Visita mi Perfil para ver MI CATALOGO de Series | Temporadas en Defición Estándar y Alta Definición
    Todos mis aportes los subiré a Uploaded, si necesitas una cuenta premium en Up.to anímate y hazlo a través de mi link de referido http://ul.to/ref/2830534
    La contraseña de los aportes es "Nukety"

  2. #2
    DW-Girl Avatar de Nukety
    Fecha de ingreso
    11 dic, 11
    Mensajes
    1,973
    Poder de reputación
    45
    Re: Breaking Bad T.3 [HDiTunes 720p] [DUAL] [1.5GB] [13/13] | FS US FJ UL FSO |

    . : : ✚ Añadido Nuevo Episodio : : .

    Capitulo: 1
    Todos mis aportes los subiré a Uploaded, si necesitas una cuenta premium en Up.to anímate y hazlo a través de mi link de referido http://ul.to/ref/2830534
    La contraseña de los aportes es "Nukety"

Temas similares

  1. The Killing T.1 [HDiTunes 720p] [DUAL] [1.5GB] [13/13] | FS US |
    Por Nukety en el foro Series de TV Gratis
    Respuestas: 1
    Último mensaje: 07/07/2012, 10:23
  2. The Glades T.1 [HDiTunes 720p] [DUAL] [1.5GB] [13/13] | FS US WU |
    Por Nukety en el foro Series de TV Gratis
    Respuestas: 1
    Último mensaje: 03/02/2012, 16:40
  3. Respuestas: 0
    Último mensaje: 08/01/2012, 22:58
  4. Respuestas: 0
    Último mensaje: 08/01/2012, 22:56
  5. Respuestas: 0
    Último mensaje: 20/12/2011, 19:36

Etiquetas para este tema

Permisos de Publicación

  • No puedes crear nuevos temas
  • No puedes responder temas
  • No puedes subir archivos adjuntos
  • No puedes editar tus mensajes
  •