Resultados 1 al 1 de 1
  1. #1
    Semi Experto DW
    Fecha de ingreso
    21 ago, 11
    Mensajes
    209
    Poder de reputación
    12
    Bucky Larson: nacido para ser una estrella [2011][1080p][AC3-Castellano/DTS-English][Sub.Es][Comedia][2-Serv]


    Tamaño: 6.81 GB
    Formato: Matroska
    Video: x264
    Resolucion: 1920x1040
    Format profile: High@L4.1 Marcos 4
    Audio 1: Spanish AC3 384Kbps 6 channels
    Audio 2: English DTS 1510 Kbps 6 channels
    Subtitulos: Spanish
    Servidores: Filejungle, Filesonic y Fileserve, 7X1000 MB, intercambiables, jdownloader.


    Ficha Técnica:
    TÍTULO ORIGINAL Bucky Larson: Born to Be a Star
    AÑO 2011
    DURACIÓN 97 min.
    PAÍS [Estados Unidos]
    DIRECTOR Tom Brady
    GUIÓN Adam Sandler, Allen Covert, Nick Swardson
    MÚSICA Waddy Wachtel
    FOTOGRAFÍA Michael Barrett
    REPARTO Nick Swardson, Christina Ricci, Don Johnson, Stephen Dorff, Ido Mosseri, Kevin Nealon, Edward Herrmann, Miriam Flynn, Mario Joyner, Tyler Spindel, Meredith Giangrande, Nicholas Turturro, Mary Pat Gleason
    PRODUCTORA Miles Deep Producitons / Columbia Pictures
    GÉNERO Comedia | Comedia negra. Cine dentro del cine‬

    Información del medio:
    General
    Format : Matroska
    Format version : Version 2
    File size : 6.81 GiB
    Duration : 1h 32mn
    Overall bit rate : 10.5 Mbps
    Encoded date : UTC 2012-01-06 18:08:04

    Video
    ID : 1
    Format : AVC
    Format/Info : Advanced Video Codec
    Format profile : High@L4.1
    Format settings, CABAC : Yes
    Format settings, ReFrames : 4 frames
    Codec ID : V_MPEG4/ISO/AVC
    Duration : 1h 32mn
    Bit rate : 8 189 Kbps
    Width : 1 920 pixels
    Height : 1 040 pixels
    Display aspect ratio : 16:9
    Frame rate : 25.000 fps
    Original frame rate : 23.976 fps
    Color space : YUV
    Chroma subsampling : 4:2:0
    Bit depth : 8 bits
    Scan type : Progressive
    Bits/(Pixel*Frame) : 0.164
    Stream size : 5.44 GiB (80%)
    Writing library : x264 core
    Language : English
    Default : Yes
    Forced : No

    Audio #1
    ID : 2
    Format : AC-3
    Format/Info : Audio Coding 3
    Mode extension : CM (complete main)
    Codec ID : A_AC3
    Duration : 1h 32mn
    Bit rate mode : Constant
    Bit rate : 384 Kbps
    Channel(s) : 6 channels
    Channel positions : Front: L C R, Side: L R, LFE
    Sampling rate : 48.0 KHz
    Bit depth : 16 bits
    Compression mode : Lossy
    Delay relative to video : 24ms
    Stream size : 255 MiB (4%)
    Language : Spanish
    Default : Yes
    Forced : Yes

    Audio #2
    ID : 3
    Format : DTS
    Format/Info : Digital Theater Systems
    Codec ID : A_DTS
    Duration : 1h 32mn
    Bit rate mode : Constant
    Bit rate : 1 510 Kbps
    Channel(s) : 6 channels
    Channel positions : Front: L C R, Side: L R, LFE
    Sampling rate : 48.0 KHz
    Bit depth : 24 bits
    Compression mode : Lossy
    Stream size : 1 003 MiB (14%)
    Language : English
    Default : No
    Forced : No

    Text
    ID : 4
    Format : UTF-8
    Codec ID : S_TEXT/UTF8
    Codec ID/Info : UTF-8 Plain Text
    Language : Spanish
    Default : No
    Forced : No



    Un joven de una pequeña población del medio oeste decide mudarse a Hollywood con la intención de seguir los pasos de sus padres: convertirse en una estrella del cine porno.






    TODOS INTERCAMBIABLES

    Por link:

    [Solo usuarios registrados a DowntWarez.Com puede ver los links. ]
    [Solo usuarios registrados a DowntWarez.Com puede ver los links. ]
    [Solo usuarios registrados a DowntWarez.Com puede ver los links. ]
    [Solo usuarios registrados a DowntWarez.Com puede ver los links. ]
    [Solo usuarios registrados a DowntWarez.Com puede ver los links. ]
    [Solo usuarios registrados a DowntWarez.Com puede ver los links. ]
    [Solo usuarios registrados a DowntWarez.Com puede ver los links. ]

    Por gestor:
    código:
    http://www.filejungle.com/f/5Sb3zu/188_kooldoom.part1.rar
    http://www.filejungle.com/f/QZpBdB/188_kooldoom.part2.rar
    http://www.filejungle.com/f/ZZkYyY/188_kooldoom.part3.rar
    http://www.filejungle.com/f/UKnufD/188_kooldoom.part4.rar
    http://www.filejungle.com/f/mYPfPv/188_kooldoom.part5.rar
    http://www.filejungle.com/f/xhZ6pj/188_kooldoom.part6.rar
    http://www.filejungle.com/f/wrh8hA/188_kooldoom.part7.rar


    Por link:
    [Solo usuarios registrados a DowntWarez.Com puede ver los links. ]
    [Solo usuarios registrados a DowntWarez.Com puede ver los links. ]
    [Solo usuarios registrados a DowntWarez.Com puede ver los links. ]
    [Solo usuarios registrados a DowntWarez.Com puede ver los links. ]
    [Solo usuarios registrados a DowntWarez.Com puede ver los links. ]
    [Solo usuarios registrados a DowntWarez.Com puede ver los links. ]
    [Solo usuarios registrados a DowntWarez.Com puede ver los links. ]

    Por gestor:
    código:
    http://www.fileserve.com/file/Rjuep5t/188_kooldoom.part1.rar
    http://www.fileserve.com/file/kSxuPnf/188_kooldoom.part2.rar
    http://www.fileserve.com/file/Te3kmkG/188_kooldoom.part3.rar
    http://www.fileserve.com/file/F6c3Ngh/188_kooldoom.part4.rar
    http://www.fileserve.com/file/4VcVDcU/188_kooldoom.part5.rar
    http://www.fileserve.com/file/5jHDhEB/188_kooldoom.part6.rar
    http://www.fileserve.com/file/AtpSAQA/188_kooldoom.part7.rar


    Última edición por kooldoom@hotmail.com; 08/01/2012 a las 19:08
    Te invito a conocer mis aportes [Solo usuarios registrados a DowntWarez.Com puede ver los links. ]

Temas similares

  1. [Tutorial] Tutorial válido para todas las versiones de Wii incluyendo la versión 4.3
    Por zidane11 en el foro Consolas Nintendo
    Respuestas: 2
    Último mensaje: Hace 3 semanas, 14:06
  2. Saga de juegos infantiles Aprende con Pipo
    Por rosskko en el foro Infantiles y Educativos
    Respuestas: 10
    Último mensaje: 19/12/2013, 04:38
  3. Indice de Hacks [Recopilacion-Actualizando]
    Por usaflex en el foro vB Hacks/Modifications
    Respuestas: 4
    Último mensaje: 01/10/2013, 17:20
  4. Te enseño a hacer bebidas alcoholicas?
    Por Arieth en el foro Temas Generales
    Respuestas: 3
    Último mensaje: 04/10/2011, 07:07

Etiquetas para este tema

Permisos de Publicación

  • No puedes crear nuevos temas
  • No puedes responder temas
  • No puedes subir archivos adjuntos
  • No puedes editar tus mensajes
  •