Resultados 1 al 2 de 2
  1. #1
    DW-Girl Avatar de Nukety
    Fecha de ingreso
    11 dic, 11
    Mensajes
    1,973
    Poder de reputación
    45
    Haven T.1 [HDTV] [ESP] [350MB] [13/13] [UL SF LE DF] 1 Link
    Haven | Temporada 1 | Capitulos [13/13]



    · · · · · · · · · · · · · · · : : | Ficha Técnica | : : · · · · · · · · · · · · · · ·

    Título: Haven
    Título Original: Haven
    Año: 2010
    País: USA
    Duración: 40 min.
    Género: Drama | Fantasy
    Creador: Stephen King
    Productora: E1 Entertainment


    · · · · · · · · · · · · · · · : : | Reparto | : : · · · · · · · · · · · · · · ·

    ✭ Emily Rose | ✭ Eric Balfour | ✭ Lucas Bryant | ✭ Richard Donat | ✭ John Dunsworth


    · · · · · · · · · · · · · · · : : | Sinopsis | : : · · · · · · · · · · · · · · ·

    Sinopsis: Todo comienza con la llegada de la agente del FBI Audrey Parker (Emily Rose; Jericho, Cinco hermanos), quien acude siguiendo la pista de un preso fugado y se encuentra con un pueblo costero en el que el detective que le ayuda en la investigación no siente dolor, los encargados del periódico local son una extraña pareja de sexagenarios que viaja en tándem, invadir el espacio personal puede tener consecuencias desastrosas y hasta tienen su propio sospechoso habitual local: Duke (Eric Balfour; 24, A dos metros bajo tierra).
    Pero no son los habitantes más extravagantes lo único inusual de Haven: fieras tormentas que se desatan en segundos, densas nieblas que descienden a la misma velocidad, grietas que surgen de pronto en el asfalto, personas que envejecen a una velocidad mayor de lo normal, extrañas intoxicaciones alimentarias, manicomios que vuelven loca a la gente... Aquí nada parece ser normal.

    WebSite [Solo usuarios registrados a DowntWarez.Com puede ver los links. ]
    FilmAffinity [Solo usuarios registrados a DowntWarez.Com puede ver los links. ]
    IMDB [Solo usuarios registrados a DowntWarez.Com puede ver los links. ]
    YouTube [Solo usuarios registrados a DowntWarez.Com puede ver los links. ]


    Temporada: 1
    Nº de Capitulos: 13
    Rip: HDiTunes
    Formato: 480p
    Contenedor: AVI
    Audio: Castellano e Inglés
    Tamaño: 600MB
    General
    Format : AVI
    Format/Info : Audio Video Interleave
    File size : 630 MiB
    Duration : 43mn 39s
    Overall bit rate : 2 018 Kbps

    Video
    ID : 0
    Format : MPEG-4 Visual
    Format profile : Advanced Simple@L5
    Format settings, BVOP : 2
    Format settings, QPel : No
    Format settings, GMC : No warppoints
    Format settings, Matrix : Default (H.263)
    Codec ID : XVID
    Codec ID/Hint : XviD
    Duration : 43mn 39s
    Bit rate : 1 620 Kbps
    Width : 704 pixels
    Height : 396 pixels
    Display aspect ratio : 16:9
    Frame rate : 23.976 fps
    Color space : YUV
    Chroma subsampling : 4:2:0
    Bit depth : 8 bits
    Scan type : Progressive
    Compression mode : Lossy
    Bits/(Pixel*Frame) : 0.242
    Stream size : 506 MiB (80%)
    Writing library : XviD 1.2.1 (UTC 2008-12-04)

    Audio #1
    ID : 1
    Format : MPEG Audio
    Format version : Version 1
    Format profile : Layer 3
    Mode : Joint stereo
    Codec ID : 55
    Codec ID/Hint : MP3
    Duration : 43mn 39s
    Bit rate mode : Constant
    Bit rate : 192 Kbps
    Channel(s) : 2 channels
    Sampling rate : 48.0 KHz
    Compression mode : Lossy
    Stream size : 60.0 MiB (10%)
    Alignment : Aligned on interleaves
    Interleave, duration : 42 ms (1.00 video frame)
    Interleave, preload duration : 504 ms

    Audio #2
    ID : 2
    Format : MPEG Audio
    Format version : Version 1
    Format profile : Layer 3
    Mode : Joint stereo
    Codec ID : 55
    Codec ID/Hint : MP3
    Duration : 43mn 39s
    Bit rate mode : Constant
    Bit rate : 192 Kbps
    Channel(s) : 2 channels
    Sampling rate : 48.0 KHz
    Compression mode : Lossy
    Stream size : 60.0 MiB (10%)
    Alignment : Aligned on interleaves
    Interleave, duration : 42 ms (1.00 video frame)
    Interleave, preload duration : 504 ms



    Links Temporada 1

    Uploaded [Solo usuarios registrados a DowntWarez.Com puede ver los links. ]

    · · · · · · · · · · · · · · · : : | Otras Temporadas | : : · · · · · · · · · · · · · · ·


    [Solo usuarios registrados a DowntWarez.Com puede ver los links. ]
    [Solo usuarios registrados a DowntWarez.Com puede ver los links. ]


    [Solo usuarios registrados a DowntWarez.Com puede ver los links. ]
    [Solo usuarios registrados a DowntWarez.Com puede ver los links. ]
    Todos mis aportes los subiré a Uploaded, si necesitas una cuenta premium en Up.to anímate y hazlo a través de mi link de referido http://ul.to/ref/2830534
    La contraseña de los aportes es "Nukety"

  2. #2
    DW-Girl Avatar de Nukety
    Fecha de ingreso
    11 dic, 11
    Mensajes
    1,973
    Poder de reputación
    45
    Re: Haven T.1 [HDTV] [ESP] [350MB] [13/13] | FS US FJ UL FSO | 1Link
    . : : ⇪ Aporte Resubido : : .

Temas similares

  1. Respuestas: 3
    Último mensaje: 17/08/2012, 02:02
  2. Respuestas: 1
    Último mensaje: 15/02/2012, 08:33
  3. El Barco T.1 [HDTV] [ESP] [650MB] [13/13] | FS US WU | 1Link
    Por Nukety en el foro Series de TV Gratis
    Respuestas: 1
    Último mensaje: 07/02/2012, 20:24
  4. Perdidos T.6 [HDTV] [ESP] [350MB] [18/18] | FS US WU | 1Link
    Por Nukety en el foro Series de TV Gratis
    Respuestas: 1
    Último mensaje: 06/02/2012, 16:06
  5. Casi Humanos T.1 [HDTV] [ESP] [400MB] [13/13] | FS US WU |
    Por Nukety en el foro Series de TV Gratis
    Respuestas: 1
    Último mensaje: 20/01/2012, 09:14

Etiquetas para este tema

Permisos de Publicación

  • No puedes crear nuevos temas
  • No puedes responder temas
  • No puedes subir archivos adjuntos
  • No puedes editar tus mensajes
  •