Resultados 1 al 5 de 5
  1. #1
    DW-Girl Avatar de Nukety
    Fecha de ingreso
    11 dic, 11
    Mensajes
    1,973
    Poder de reputación
    45
    Haven T.1 [HDiTunes 720p] [DUAL] [1.4GB] [13/13] | FS US FJ UL FSO |
    Haven | Temporada 1 | Capitulos [13/13]



    · · · · · · · · · · · · · · · : : | Ficha Técnica | : : · · · · · · · · · · · · · · ·

    Título: Haven
    Título Original: Haven
    Año: 2010
    País: USA
    Duración: 40 min.
    Género: Drama | Fantasy
    Creador: Stephen King
    Productora: E1 Entertainment


    · · · · · · · · · · · · · · · : : | Reparto | : : · · · · · · · · · · · · · · ·

    ✭ Emily Rose | ✭ Eric Balfour | ✭ Lucas Bryant | ✭ Richard Donat | ✭ John Dunsworth


    · · · · · · · · · · · · · · · : : | Sinopsis | : : · · · · · · · · · · · · · · ·

    Sinopsis: Todo comienza con la llegada de la agente del FBI Audrey Parker (Emily Rose; Jericho, Cinco hermanos), quien acude siguiendo la pista de un preso fugado y se encuentra con un pueblo costero en el que el detective que le ayuda en la investigación no siente dolor, los encargados del periódico local son una extraña pareja de sexagenarios que viaja en tándem, invadir el espacio personal puede tener consecuencias desastrosas y hasta tienen su propio sospechoso habitual local: Duke (Eric Balfour; 24, A dos metros bajo tierra).
    Pero no son los habitantes más extravagantes lo único inusual de Haven: fieras tormentas que se desatan en segundos, densas nieblas que descienden a la misma velocidad, grietas que surgen de pronto en el asfalto, personas que envejecen a una velocidad mayor de lo normal, extrañas intoxicaciones alimentarias, manicomios que vuelven loca a la gente... Aquí nada parece ser normal.

    WebSite [Solo usuarios registrados a DowntWarez.Com puede ver los links. ]
    FilmAffinity [Solo usuarios registrados a DowntWarez.Com puede ver los links. ]
    IMDB [Solo usuarios registrados a DowntWarez.Com puede ver los links. ]
    YouTube [Solo usuarios registrados a DowntWarez.Com puede ver los links. ]


    Temporada: 1
    Nº de Capitulos: 13
    Rip: HDiTunes
    Formato: 720p
    Contenedor: MKV
    Audio: Castellano e Inglés
    Tamaño: 1.4GB
    General
    Format : Matroska
    Format version : Version 2
    File size : 1.43 GiB
    Duration : 42mn 19s
    Overall bit rate : 4 844 Kbps

    Video
    ID : 1
    Format : AVC
    Format/Info : Advanced Video Codec
    Format profile : High@L3.1
    Format settings, CABAC : No
    Format settings, ReFrames : 2 frames
    Codec ID : V_MPEG4/ISO/AVC
    Bit rate : 4 171 Kbps
    Width : 1 280 pixels
    Height : 720 pixels
    Display aspect ratio : 16:9
    Frame rate mode : Variable
    Color space : YUV
    Chroma subsampling : 4:2:0
    Bit depth : 8 bits
    Scan type : Progressive
    Title : Haven 1x06 720p.HDiTunes.demonik19
    Language : English
    Default : Yes
    Forced : No
    Color primaries : BT.709
    Transfer characteristics : BT.709
    Matrix coefficients : BT.709

    Audio #1
    ID : 2
    Format : AC-3
    Format/Info : Audio Coding 3
    Mode extension : CM (complete main)
    Format settings, Endianness : Big
    Codec ID : A_AC3
    Duration : 42mn 19s
    Bit rate mode : Constant
    Bit rate : 192 Kbps
    Channel(s) : 2 channels
    Channel positions : Front: L R
    Sampling rate : 48.0 KHz
    Bit depth : 16 bits
    Compression mode : Lossy
    Delay relative to video : 1s 100ms
    Stream size : 58.1 MiB (4%)
    Title : Español AC3 2.0 by demonik19
    Language : Spanish
    Default : Yes
    Forced : Yes

    Audio #2
    ID : 3
    Format : AC-3
    Format/Info : Audio Coding 3
    Mode extension : CM (complete main)
    Format settings, Endianness : Big
    Codec ID : A_AC3
    Duration : 42mn 19s
    Bit rate mode : Constant
    Bit rate : 384 Kbps
    Channel(s) : 6 channels
    Channel positions : Front: L C R, Side: L R, LFE
    Sampling rate : 48.0 KHz
    Bit depth : 16 bits
    Compression mode : Lossy
    Stream size : 116 MiB (8%)
    Title : Ingles 5.1
    Language : English
    Default : No
    Forced : No

    Text #1
    ID : 4
    Format : UTF-8
    Codec ID : S_TEXT/UTF8
    Codec ID/Info : UTF-8 Plain Text
    Title : Subtitulos Español
    Language : Spanish
    Default : Yes
    Forced : Yes

    Text #2
    ID : 5
    Format : UTF-8
    Codec ID : S_TEXT/UTF8
    Codec ID/Info : UTF-8 Plain Text
    Title : Subtitulos Ingles
    Language : English
    Default : No
    Forced : No


    Contenido Oculto, debes [Solo usuarios registrados a DowntWarez.Com puede ver los links. ] para poder ver lo que hay dentro :)

    · · · · · · · · · · · · · · · : : | Otras Temporadas | : : · · · · · · · · · · · · · · ·



    [Solo usuarios registrados a DowntWarez.Com puede ver los links. ]
    [Solo usuarios registrados a DowntWarez.Com puede ver los links. ]
    [Solo usuarios registrados a DowntWarez.Com puede ver los links. ]


    [Solo usuarios registrados a DowntWarez.Com puede ver los links. ]
    [Solo usuarios registrados a DowntWarez.Com puede ver los links. ]
    [Solo usuarios registrados a DowntWarez.Com puede ver los links. ]
    Todos mis aportes los subiré a Uploaded, si necesitas una cuenta premium en Up.to anímate y hazlo a través de mi link de referido http://ul.to/ref/2830534
    La contraseña de los aportes es "Nukety"

  2. #2
    DW-Girl Avatar de Nukety
    Fecha de ingreso
    11 dic, 11
    Mensajes
    1,973
    Poder de reputación
    45
    Re: Haven T.1 [HDiTunes 720p] [DUAL] [1.4GB] [13/13] | FS US WU |

    . : : ✚ Añadido Nuevo Episodio : : .

    Capitulo: 10

  3. #3
    DW-Girl Avatar de Nukety
    Fecha de ingreso
    11 dic, 11
    Mensajes
    1,973
    Poder de reputación
    45
    Re: Haven T.1 [HDiTunes 720p] [DUAL] [1.4GB] [13/13] | FS US WU |

    . : : ✚ Añadido Nuevo Episodio : : .

    Capitulo: 12

  4. #4
    DW-Girl Avatar de Nukety
    Fecha de ingreso
    11 dic, 11
    Mensajes
    1,973
    Poder de reputación
    45
    Re: Haven T.1 [HDiTunes 720p] [DUAL] [1.4GB] [13/13] | FS US WU |

    . : : ✚ Añadido Nuevo Episodio : : .

    Capitulo: 11

  5. #5
    DW-Girl Avatar de Nukety
    Fecha de ingreso
    11 dic, 11
    Mensajes
    1,973
    Poder de reputación
    45
    Re: Haven T.1 [HDiTunes 720p] [DUAL] [1.4GB] [13/13] | FS US WU |
    . : : ⇪ Aporte Resubido : : .

Temas similares

  1. Respuestas: 1
    Último mensaje: 11/01/2012, 02:31
  2. Haven T.1 [HDiTunes 720p] [DUAL] [1.4GB] [13/13] | FS US WU |
    Por Nukety en el foro Series de TV Gratis
    Respuestas: 0
    Último mensaje: 31/12/2011, 06:31
  3. Respuestas: 0
    Último mensaje: 26/12/2011, 13:27
  4. Respuestas: 0
    Último mensaje: 24/12/2011, 09:40
  5. Respuestas: 0
    Último mensaje: 22/12/2011, 22:18

Etiquetas para este tema

Permisos de Publicación

  • No puedes crear nuevos temas
  • No puedes responder temas
  • No puedes subir archivos adjuntos
  • No puedes editar tus mensajes
  •