Resultados 1 al 2 de 2
  1. #1
    DW-Girl Avatar de Nukety
    Fecha de ingreso
    11 dic, 11
    Mensajes
    1,973
    Poder de reputación
    44
    Rizzoli & Isles T.2 [HDiTunes 720p] [DUAL] [1.35GB] [ MultiHost ]
    Rizzoli & Isles | Temporada 2 | Capitulos [15/15]



    · · · · · · · · · · · · · · · : : | Ficha Técnica | : : · · · · · · · · · · · · · · ·

    Título: Rizzoli & Isles
    Título Original: Rizzoli & Isles
    Año: 2010
    País: USA
    Duración: 50 min.
    Género: Drama
    Creador: Janet Tamaro, Tess Gerritsen
    Productora: Warner Horizon Television


    · · · · · · · · · · · · · · · : : | Reparto | : : · · · · · · · · · · · · · · ·

    ✭ Angie Harmon | ✭ Sasha Alexander | ✭ Lorraine Bracco | ✭ Lee Thompson Young | ✭ Bruce McGill | ✭ Jordan Bridges | ✭ Donnie Wahlberg | ✭ Dwayne Standridge | ✭ Jayson Blair


    · · · · · · · · · · · · · · · : : | Sinopsis | : : · · · · · · · · · · · · · · ·

    Sinopsis: Una es hija única de una pareja de clase alta y la otra creció en una bulliciosa familia italiana de clase media. Una adora la ropa bien diseñada y la otra las armas bien engrasadas. Una descubre cómo el asesino acabó con su víctima y la otra por qué. La detective Jane Rizzoli y la doctora Maura Isles no pueden ser más distintas ni más efectivas.
    Fuente: Calle13Universal.es

    WebSite [Solo usuarios registrados a DowntWarez.Com puede ver los links. ]
    FilmAffinity [Solo usuarios registrados a DowntWarez.Com puede ver los links. ]
    IMDB [Solo usuarios registrados a DowntWarez.Com puede ver los links. ]
    YouTube [Solo usuarios registrados a DowntWarez.Com puede ver los links. ]


    Temporada: 2
    Nº de Capitulos: 15
    Rip: HDiTunes
    Formato: 720p
    Contenedor: MKV
    Audio: Castellano e Inglés
    Tamaño: 1.4GB
    General
    Format : Matroska
    Format version : Version 2
    File size : 1.41 GiB
    Duration : 42mn 16s
    Overall bit rate : 4 762 Kbps


    Video
    ID : 1
    Format : AVC
    Format/Info : Advanced Video Codec
    Format profile : High@L3.1
    Format settings, CABAC : No
    Format settings, ReFrames : 2 frames
    Codec ID : V_MPEG4/ISO/AVC
    Duration : 42mn 16s
    Bit rate : 3 899 Kbps
    Width : 1 280 pixels
    Height : 720 pixels
    Display aspect ratio : 16:9
    Frame rate mode : Constant
    Frame rate : 23.976 fps
    Color space : YUV
    Chroma subsampling : 4:2:0
    Bit depth : 8 bits
    Scan type : Progressive
    Bits/(Pixel*Frame) : 0.176
    Stream size : 1.15 GiB (82%)
    Title : Rizzoli 2x10 by dsigual
    Language : English
    Default : No
    Forced : No
    Color primaries : BT.709
    Transfer characteristics : BT.709
    Matrix coefficients : BT.709

    Audio #1
    ID : 2
    Format : AC-3
    Format/Info : Audio Coding 3
    Mode extension : CM (complete main)
    Format settings, Endianness : Big
    Codec ID : A_AC3
    Duration : 42mn 16s
    Bit rate mode : Constant
    Bit rate : 384 Kbps
    Channel(s) : 2 channels
    Channel positions : Front: L R
    Sampling rate : 48.0 KHz
    Bit depth : 16 bits
    Compression mode : Lossy
    Stream size : 116 MiB (8%)
    Title : AC3 2.0 @ 192 kbps
    Language : Spanish
    Default : Yes
    Forced : No

    Audio #2
    ID : 3
    Format : AC-3
    Format/Info : Audio Coding 3
    Mode extension : CM (complete main)
    Format settings, Endianness : Big
    Codec ID : A_AC3
    Duration : 42mn 16s
    Bit rate mode : Constant
    Bit rate : 384 Kbps
    Channel(s) : 6 channels
    Channel positions : Front: L C R, Side: L R, LFE
    Sampling rate : 48.0 KHz
    Bit depth : 16 bits
    Compression mode : Lossy
    Stream size : 116 MiB (8%)
    Title : AC3 5.1 @ 384 kbps
    Language : English
    Default : No
    Forced : No


    Contenido Oculto, debes [Solo usuarios registrados a DowntWarez.Com puede ver los links. ] para poder ver lo que hay dentro :)

    · · · · · · · · · · · · · · · : : | Otras Temporadas | : : · · · · · · · · · · · · · · ·



    [Solo usuarios registrados a DowntWarez.Com puede ver los links. ]
    [Solo usuarios registrados a DowntWarez.Com puede ver los links. ]
    [Solo usuarios registrados a DowntWarez.Com puede ver los links. ]


    [Solo usuarios registrados a DowntWarez.Com puede ver los links. ]
    [Solo usuarios registrados a DowntWarez.Com puede ver los links. ]
    [Solo usuarios registrados a DowntWarez.Com puede ver los links. ]
    Todos mis aportes los subiré a Uploaded, si necesitas una cuenta premium en Up.to anímate y hazlo a través de mi link de referido http://ul.to/ref/2830534
    La contraseña de los aportes es "Nukety"

  2. #2
    DW-Girl Avatar de Nukety
    Fecha de ingreso
    11 dic, 11
    Mensajes
    1,973
    Poder de reputación
    44
    Re: Rizzoli & Isles T.2 [HDiTunes 720p] [DUAL] [1.3GB] | FS US WU |
    . : : ⇪ Aporte Completo : : .

Temas similares

  1. Gossip Girl T.5 [HDiTunes 720p] [DUAL] [1.5GB] | FS US FJ UL FSO |
    Por Nukety en el foro Series de TV Gratis
    Respuestas: 0
    Último mensaje: 24/12/2011, 09:04
  2. Respuestas: 0
    Último mensaje: 24/12/2011, 04:20
  3. Respuestas: 0
    Último mensaje: 24/12/2011, 03:39
  4. Respuestas: 0
    Último mensaje: 24/12/2011, 03:29
  5. Respuestas: 0
    Último mensaje: 24/12/2011, 03:10

Etiquetas para este tema

Permisos de Publicación

  • No puedes crear nuevos temas
  • No puedes responder temas
  • No puedes subir archivos adjuntos
  • No puedes editar tus mensajes
  •