Haven | Temporada 1 | Capitulos [13/13]



Título: Haven
Título Original: Haven
Año: 2010
País: USA
Duración: 40 min.
Género: Drama | Fantasy
Creador: Stephen King
Productora: E1 Entertainment



Sinopsis: Todo comienza con la llegada de la agente del FBI Audrey Parker (Emily Rose; Jericho, Cinco hermanos), quien acude siguiendo la pista de un preso fugado y se encuentra con un pueblo costero en el que el detective que le ayuda en la investigación no siente dolor, los encargados del periódico local son una extraña pareja de sexagenarios que viaja en tándem, invadir el espacio personal puede tener consecuencias desastrosas y hasta tienen su propio sospechoso habitual local: Duke (Eric Balfour; 24, A dos metros bajo tierra).
Pero no son los habitantes más extravagantes lo único inusual de Haven: fieras tormentas que se desatan en segundos, densas nieblas que descienden a la misma velocidad, grietas que surgen de pronto en el asfalto, personas que envejecen a una velocidad mayor de lo normal, extrañas intoxicaciones alimentarias, manicomios que vuelven loca a la gente... Aquí nada parece ser normal.

+ [Solo usuarios registrados a DowntWarez.Com puede ver los links. ]
ERROR: [Solo usuarios registrados a DowntWarez.Com puede ver los links. ]esta caido o no tienes Flash instalado.


[Solo usuarios registrados a DowntWarez.Com puede ver los links. ] [Solo usuarios registrados a DowntWarez.Com puede ver los links. ] [Solo usuarios registrados a DowntWarez.Com puede ver los links. ]

Temporada: 1
Nº de Capitulos: 13
Rip: HDiTunes
Formato: 720p
Contenedor: MKV
Audio: Castellano e Inglés
Tamaño: 1.4GB
Rippeo: ?!!
Format : Matroska
File size : 1.42 GiB
Duration : 43mn 37s
Overall bit rate : 4 667 Kbps
Encoded date : UTC 2010-10-28 09:59:54
Writing application : mkvmerge v2.9.0 ('Moanin'') built on May 22 2009 17:46:31
Writing library : libebml v0.7.7 + libmatroska v0.8.1

Video
ID : 1
Format : AVC
Format/Info : Advanced Video Codec
Format profile : High@L3.1
Format settings, CABAC : No
Format settings, ReFrames : 2 frames
Format settings, GOP : M=2, N=32
Codec ID : V_MPEG4/ISO/AVC
Duration : 43mn 37s
Bit rate : 3 998 Kbps
Width : 1 280 pixels
Height : 720 pixels
Display aspect ratio : 16:9
Frame rate : 23.976 fps
Color space : YUV
Chroma subsampling : 4:2:0
Bit depth : 8 bits
Scan type : Progressive
Bits/(Pixel*Frame) : 0.181
Stream size : 1.22 GiB (86%)
Language : English
Color primaries : BT.709-5, BT.1361, IEC 61966-2-4, SMPTE RP177
Transfer characteristics : BT.709-5, BT.1361
Matrix coefficients : BT.709-5, BT.1361, IEC 61966-2-4 709, SMPTE RP177

Audio #1
ID : 2
Format : AC-3
Format/Info : Audio Coding 3
Mode extension : CM (complete main)
Codec ID : A_AC3
Duration : 43mn 37s
Bit rate mode : Constant
Bit rate : 192 Kbps
Channel(s) : 2 channels
Channel positions : Front: L R
Sampling rate : 48.0 KHz
Bit depth : 16 bits
Compression mode : Lossy
Delay relative to video : 24ms
Stream size : 59.9 MiB (4%)
Language : Spanish

Audio #2
ID : 3
Format : AC-3
Format/Info : Audio Coding 3
Mode extension : CM (complete main)
Codec ID : A_AC3
Duration : 43mn 37s
Bit rate mode : Constant
Bit rate : 384 Kbps
Channel(s) : 6 channels
Channel positions : Front: L C R, Side: L R, LFE
Sampling rate : 48.0 KHz
Bit depth : 16 bits
Compression mode : Lossy
Stream size : 120 MiB (8%)
Title : Ingles AC3 5.1
Language : English

Text #1
ID : 4
Format : UTF-8
Codec ID : S_TEXT/UTF8
Codec ID/Info : UTF-8 Plain Text
Language : Spanish

Text #2
ID : 5
Format : UTF-8
Codec ID : S_TEXT/UTF8
Codec ID/Info : UTF-8 Plain Text
Language : English


Links Temporada 1
Uploadstation: [Solo usuarios registrados a DowntWarez.Com puede ver los links. ]
Wupload: [Solo usuarios registrados a DowntWarez.Com puede ver los links. ]
Fileserve: [Solo usuarios registrados a DowntWarez.Com puede ver los links. ]


[Solo usuarios registrados a DowntWarez.Com puede ver los links. ]


[Solo usuarios registrados a DowntWarez.Com puede ver los links. ]