Resultados 1 al 6 de 6
  1. #1
    DW-Girl Avatar de Nukety
    Fecha de ingreso
    11 dic, 11
    Mensajes
    1,973
    Poder de reputación
    45
    XIII T.1 [HDiTunes] [DUAL] [600MB] [ MultiHost ] 1 Link
    XIII
    ( The Series ) | Temporada 1 | Capitulos [13/13]




    · · · · · · · · · · · · · · · : : | Ficha Técnica | : : · · · · · · · · · · · · · · ·

    Título: XIII ( The Series )
    Título Original: XIII
    Año: 2008
    País: Canadá
    Duración: 45 min.
    Género: Thriller | Action | Drama
    Creador: Jean Van Hamme
    Productora: Coproducción Canadá-Francia; Prodigy Pictures / XIII Series


    · · · · · · · · · · · · · · · : : | Reparto | : : · · · · · · · · · · · · · · ·

    ✭ Stuart Townsend | ✭ Aisha Tyler | ✭ Virginie Ledoyen | ✭ Caterina Murino | ✭ Greg Bryk | ✭ Stephen McHattie | ✭ Ted Atherton


    · · · · · · · · · · · · · · · : : | Sinopsis | : : · · · · · · · · · · · · · · ·

    Sinopsis: La primera Temporada es una Miniserie de 2 episodios llamada XIII - La Conspiración de 2008.
    La segunda temporada es la serie del 2011, XIII: The Series, es la historia de la búsqueda de un hombre por descubrir la verdad sobre su identidad. Llamado así por el número romano tatuado en su cuello, XIII es un exagente secreto que no puede recordar su pasado, al que persigue una oscura organización antigubernamental. XIII busca las pistas que le conducirán a lo que es, y al secreto que lo hace tan valioso y tan potencialmente peligroso.


    FilmAffinity [Solo usuarios registrados a DowntWarez.Com puede ver los links. ]
    IMDB [Solo usuarios registrados a DowntWarez.Com puede ver los links. ]
    YouTube [Solo usuarios registrados a DowntWarez.Com puede ver los links. ]


    Temporada: 1
    Nº de Capitulos: 13
    Rip: HDRip
    Formato: 480p
    Contenedor: AVI
    Audio: Castellano e Inglés
    Tamaño: 600MB
    General
    Format : AVI
    Format/Info : Audio Video Interleave
    File size : 623 MiB
    Duration : 43mn 9s
    Overall bit rate : 2 017 Kbps


    Video
    ID : 0
    Format : MPEG-4 Visual
    Format profile : Advanced Simple@L5
    Format settings, BVOP : 1
    Format settings, QPel : No
    Format settings, GMC : No warppoints
    Format settings, Matrix : Default (H.263)
    Codec ID : XVID
    Codec ID/Hint : XviD
    Duration : 43mn 9s
    Bit rate : 1 619 Kbps
    Width : 704 pixels
    Height : 396 pixels
    Display aspect ratio : 16:9
    Frame rate : 25.000 fps
    Original frame rate : 23.976 fps
    Color space : YUV
    Chroma subsampling : 4:2:0
    Bit depth : 8 bits
    Scan type : Progressive
    Compression mode : Lossy
    Bits/(Pixel*Frame) : 0.232
    Stream size : 500 MiB (80%)
    Writing library : XviD 1.2.1 (UTC 2008-12-04)

    Audio #1
    ID : 1
    Format : MPEG Audio
    Format version : Version 1
    Format profile : Layer 3
    Mode : Joint stereo
    Codec ID : 55
    Codec ID/Hint : MP3
    Duration : 43mn 9s
    Bit rate mode : Constant
    Bit rate : 192 Kbps
    Channel(s) : 2 channels
    Sampling rate : 48.0 KHz
    Compression mode : Lossy
    Stream size : 59.3 MiB (10%)
    Alignment : Aligned on interleaves
    Interleave, duration : 40 ms (1.00 video frame)
    Interleave, preload duration : 504 ms

    Audio #2
    ID : 2
    Format : MPEG Audio
    Format version : Version 1
    Format profile : Layer 3
    Mode : Joint stereo
    Mode extension : MS Stereo
    Codec ID : 55
    Codec ID/Hint : MP3
    Duration : 43mn 9s
    Bit rate mode : Constant
    Bit rate : 192 Kbps
    Channel(s) : 2 channels
    Sampling rate : 48.0 KHz
    Compression mode : Lossy
    Stream size : 59.3 MiB (10%)
    Alignment : Aligned on interleaves
    Interleave, duration : 40 ms (1.00 video frame)
    Interleave, preload duration : 504 ms


    Contenido Oculto, debes [Solo usuarios registrados a DowntWarez.Com puede ver los links. ] para poder ver lo que hay dentro :)

    · · · · · · · · · · · · · · · : : | Otras Temporadas | : : · · · · · · · · · · · · · · ·


    [Solo usuarios registrados a DowntWarez.Com puede ver los links. ]


    [Solo usuarios registrados a DowntWarez.Com puede ver los links. ]
    Todos mis aportes los subiré a Uploaded, si necesitas una cuenta premium en Up.to anímate y hazlo a través de mi link de referido http://ul.to/ref/2830534
    La contraseña de los aportes es "Nukety"

  2. #2
    DW-Girl Avatar de Nukety
    Fecha de ingreso
    11 dic, 11
    Mensajes
    1,973
    Poder de reputación
    45
    Re: XIII T.1 [HDiTunes] [DUAL] [600MB] | FS US FJ UL FSO FP |

    . : : Añadido Nuevo Episodio : : .

    Capitulo: 02

  3. #3
    DW-Girl Avatar de Nukety
    Fecha de ingreso
    11 dic, 11
    Mensajes
    1,973
    Poder de reputación
    45
    Re: XIII T.1 [HDiTunes] [DUAL] [600MB] | FS US FJ UL FSO FP |

    . : : Añadido Nuevo Episodio : : .

    Capitulo: 08

  4. #4
    DW-Girl Avatar de Nukety
    Fecha de ingreso
    11 dic, 11
    Mensajes
    1,973
    Poder de reputación
    45
    Re: XIII T.1 [HDiTunes] [DUAL] [600MB] | FS US FJ UL FSO FP |

    . : : ✚ Añadido Nuevo Episodio : : .

    Capitulo: 09

  5. #5
    DW-Girl Avatar de Nukety
    Fecha de ingreso
    11 dic, 11
    Mensajes
    1,973
    Poder de reputación
    45
    Re: XIII T.1 [HDiTunes] [DUAL] [600MB] | FS US FJ UL FSO FP |

    . : : ✚ Añadido Último Episodio : : .
    FIN DE TEMPORADA


  6. #6
    DW-Girl Avatar de Nukety
    Fecha de ingreso
    11 dic, 11
    Mensajes
    1,973
    Poder de reputación
    45
    Re: XIII T.1 [HDiTunes] [DUAL] [600MB] | FS US FJ UL FSO FP |

    . : : ✚ Añadido Nuevo Episodio : : .

    Capitulo: 02

Temas similares

  1. Respuestas: 1
    Último mensaje: 29/12/2012, 12:10
  2. XIII T.1 [HDiTunes 720p] [DUAL] [1.4GB] | FS US FJ UL FSO FP |
    Por Nukety en el foro Series de TV Gratis
    Respuestas: 2
    Último mensaje: 11/02/2012, 06:43
  3. Respuestas: 0
    Último mensaje: 24/12/2011, 05:28
  4. Respuestas: 0
    Último mensaje: 24/12/2011, 05:23
  5. Smallville - 10ª Temporada [22/22] [HDiTunes] [Dual]
    Por DTS4ever en el foro Series de TV Gratis
    Respuestas: 1
    Último mensaje: 02/10/2011, 15:20

Etiquetas para este tema

Permisos de Publicación

  • No puedes crear nuevos temas
  • No puedes responder temas
  • No puedes subir archivos adjuntos
  • No puedes editar tus mensajes
  •