Invasión Jurásica
( Primeval ) | Temporada 4 | Capitulos [01/7]




· · · · · · · · · · · · · · · : : | Ficha Técnica | : : · · · · · · · · · · · · · · ·

Título: Invasión Jurásica ( Primeval )
Título Original: Primeval
Año: 2007
País: Reino Unido
Duración: 40 min.
Género: SciFi | Action | Adventures
Creador: Tim Haines, Adrian Hodges
Productora: ITV Productions / Impossible Pictures / M6 Films / Pro 7 / Treasure Entertainment


· · · · · · · · · · · · · · · : : | Reparto | : : · · · · · · · · · · · · · · ·

✭ Douglas Henshall | ✭ Andrew Lee Potts | ✭ James Murray | ✭ Hannah Spearritt | ✭ Lucy Brown | ✭ Juliet Aubrey | ✭ Ben Miller | ✭ Karl Theobald


· · · · · · · · · · · · · · · : : | Sinopsis | : : · · · · · · · · · · · · · · ·

Sinopsis: Unas inexplicables anomalías están abriendo agujeros en la barrera del tiempo, permitiendo a las criaturas más salvajes de la evolución, del pasado y del futuro, vagar por el mundo actual. Algunas son feroces, otras inofensivas y todas ellas extrañas, además de tener algo más en común: éste no es su sitio. ¿Sobrevivirá la humanidad a esta nueva amenaza?

WebSite [Solo usuarios registrados a DowntWarez.Com puede ver los links. ]
FilmAffinity [Solo usuarios registrados a DowntWarez.Com puede ver los links. ]
IMDB [Solo usuarios registrados a DowntWarez.Com puede ver los links. ]
YouTube [Solo usuarios registrados a DowntWarez.Com puede ver los links. ]


Temporada: 4
Nº de Capitulos: 7
Rip: BDRip
Formato: 720p
Contenedor: MKV
Audio: Castellano e Inglés
Tamaño: 1.5GB
Rippeo: ??!
General
Format : Matroska
Format version : Version 1
File size : 1.52 GiB
Duration : 45mn 27s
Overall bit rate : 4 776 Kbps


Video
ID : 1
Format : AVC
Format/Info : Advanced Video Codec
Format profile : High@L4.1
Format settings, CABAC : Yes
Format settings, ReFrames : 5 frames
Codec ID : V_MPEG4/ISO/AVC
Duration : 45mn 27s
Bit rate : 4 392 Kbps
Width : 1 280 pixels
Height : 720 pixels
Display aspect ratio : 16:9
Frame rate mode : Constant
Frame rate : 25.000 fps
Color space : YUV
Chroma subsampling : 4:2:0
Bit depth : 8 bits
Scan type : Progressive
Bits/(Pixel*Frame) : 0.191
Stream size : 1.36 GiB (90%)
Writing library : x264 core 114 r1900 60ef1f8
Encoding settings : cabac=1 / ref=5 / deblock=1:0:0 / analyse=0x3:0x113 / me=umh / subme=8 / psy=1 / psy_rd=1.00:0.00 / mixed_ref=1 / me_range=16 / chroma_me=1 / trellis=1 / 8x8dct=1 / cqm=0 / deadzone=21,11 / fast_pskip=1 / chroma_qp_offset=-2 / threads=12 / sliced_threads=0 / nr=0 / decimate=1 / interlaced=0 / constrained_intra=0 / bframes=3 / b_pyramid=2 / b_adapt=2 / b_bias=0 / direct=3 / weightb=1 / open_gop=0 / weightp=2 / keyint=250 / keyint_min=25 / scenecut=40 / intra_refresh=0 / rc_lookahead=50 / rc=2pass / mbtree=1 / bitrate=4392 / ratetol=1.0 / qcomp=0.60 / qpmin=0 / qpmax=69 / qpstep=4 / cplxblur=20.0 / qblur=0.5 / ip_ratio=1.40 / aq=1:1.00
Language : English
Default : Yes
Forced : No

Audio #1
ID : 2
Format : AC-3
Format/Info : Audio Coding 3
Mode extension : CM (complete main)
Format settings, Endianness : Big
Codec ID : A_AC3
Duration : 45mn 27s
Bit rate mode : Constant
Bit rate : 192 Kbps
Channel(s) : 2 channels
Channel positions : Front: L R
Sampling rate : 48.0 KHz
Bit depth : 16 bits
Compression mode : Lossy
Stream size : 62.4 MiB (4%)
Language : Spanish
Default : Yes
Forced : No

Audio #2
ID : 3
Format : AC-3
Format/Info : Audio Coding 3
Mode extension : CM (complete main)
Format settings, Endianness : Big
Codec ID : A_AC3
Duration : 45mn 27s
Bit rate mode : Constant
Bit rate : 192 Kbps
Channel(s) : 2 channels
Channel positions : Front: L R
Sampling rate : 48.0 KHz
Bit depth : 16 bits
Compression mode : Lossy
Stream size : 62.4 MiB (4%)
Language : English
Default : No
Forced : No

Text #1
ID : 4
Format : UTF-8
Codec ID : S_TEXT/UTF8
Codec ID/Info : UTF-8 Plain Text
Language : Spanish
Default : Yes
Forced : No

Text #2
ID : 5
Format : UTF-8
Codec ID : S_TEXT/UTF8
Codec ID/Info : UTF-8 Plain Text
Language : Spanish
Default : No
Forced : No



· · · · · · · · · · · · · · · : : | Servidores de Descarga | : : · · · · · · · · · · · · · · ·
Uploaded
código:
 EP01: http://ul.to/phfqu1xs

· · · · · · · · · · · · · · · : : | Otras Temporadas | : : · · · · · · · · · · · · · · ·



[Solo usuarios registrados a DowntWarez.Com puede ver los links. ]
[Solo usuarios registrados a DowntWarez.Com puede ver los links. ]


[Solo usuarios registrados a DowntWarez.Com puede ver los links. ]