Resultados 1 al 2 de 2
  1. #1
    Baneado
    Fecha de ingreso
    18 feb, 11
    Mensajes
    3,977
    Poder de reputación
    0
    Piranha 3D(2D)(2010)(HDrip)(Castellano AC3 5.1)(Terror)[1Link]










    Terror, Thriller | 89 min. | Web oficial | En cines
    Título: Piraña 3D
    Título original: Piranha 3D
    País: USA
    Estreno en USA: 20/08/2010
    Estreno en España: 25/03/2011
    Lanzamiento en DVD (alquiler): 31/08/2011
    Productora: Dimension Films (The Weinstein Company)
    Director: Alexandre Aja
    Guión: Pete Goldfinger, Josh Stolberg
    Reparto: Richard Dreyfuss, Ving Rhames, Elisabeth Shue, Christopher Lloyd, Eli Roth, Jerry O'Connell, Cody Longo, Steven R. McQueen, Jessica Szohr, Kelly Brook, Riley Steele, Adam Scott, Ricardo Chavira, Dina Meyer, Paul Scheer
    Calificación: No recomendada para menores de 16 años


    Piranha 3D(2D)(2010)(HDrip)(Castellano AC3 5.1)(Terror)[1Link]
    Piranha 3D(2D)(2010)(HDrip)(Castellano AC3 5.1)(Terror)[1Link]
    Todos los años, el tranquilo municipio de Lake Victoria ve alterada su calma por la fiesta de la primavera, a la que acuden miles de jóvenes de todas partes para disfrutar del sol, el agua... y el alcohol. Pero este año, habrá otro motivo de preocupación aparte de las habituales resacas y las quejas de los vecinos: el terror está a punto de apoderarse del lago. Después de que un temblor subterráneo libere a cientos de pirañas prehistóricas, un dispar grupo de desconocidos deberá unirse para evitar acabar convertidos en la merienda de los nuevos y sanguinarios habitantes del lago.





    Media Info:

    código:
    Format                                   : AVI
    Format/Info                              : Audio Video Interleave
    File size                                : 1.50 GiB
    Duration                                 : 1h 24mn
    Overall bit rate                         : 2 537 Kbps
    Writing application                      : VirtualDubMod 1.5.10.2 (build 2540/release)
    Writing library                          : VirtualDubMod build 2540/release
    
    Video
    ID                                       : 0
    Format                                   : MPEG-4 Visual
    Format profile                           : Advanced Simple@L5
    Format settings, BVOP                    : 1
    Format settings, QPel                    : Yes
    Format settings, GMC                     : No warppoints
    Format settings, Matrix                  : Default (H.263)
    Muxing mode                              : Packed bitstream
    Codec ID                                 : XVID
    Codec ID/Hint                            : XviD
    Duration                                 : 1h 24mn
    Bit rate                                 : 2 079 Kbps
    Width                                    : 720 pixels
    Height                                   : 304 pixels
    Display aspect ratio                     : 2.40:1
    Frame rate                               : 25.000 fps
    Original frame rate                      : 23.976 fps
    Color space                              : YUV
    Chroma subsampling                       : 4:2:0
    Bit depth                                : 8 bits
    Scan type                                : Progressive
    Compression mode                         : Lossy
    Bits/(Pixel*Frame)                       : 0.380
    Stream size                              : 1.23 GiB (82%)
    Writing library                          : XviD 1.2.1 (UTC 2008-12-04)
    
    Audio
    ID                                       : 1
    Format                                   : AC-3
    Format/Info                              : Audio Coding 3
    Mode extension                           : CM (complete main)
    Codec ID                                 : 2000
    Duration                                 : 1h 24mn
    Bit rate mode                            : Constant
    Bit rate                                 : 448 Kbps
    Channel(s)                               : 6 channels
    Channel positions                        : Front: L C R, Side: L R, LFE
    Sampling rate                            : 48.0 KHz
    Bit depth                                : 16 bits
    Compression mode                         : Lossy
    Stream size                              : 271 MiB (18%)
    Alignment                                : Split accross interleaves
    Interleave, duration                     : 40 ms (1.00 video frame)
    Interleave, preload duration             : 500 ms










    [Solo usuarios registrados a DowntWarez.Com puede ver los links. ]
    [Solo usuarios registrados a DowntWarez.Com puede ver los links. ]
    [Solo usuarios registrados a DowntWarez.Com puede ver los links. ]







    [Solo usuarios registrados a DowntWarez.Com puede ver los links. ]
    [Solo usuarios registrados a DowntWarez.Com puede ver los links. ]
    [Solo usuarios registrados a DowntWarez.Com puede ver los links. ]

    En un Solo Link:



    [Solo usuarios registrados a DowntWarez.Com puede ver los links. ]



    Enlaces caidos? Alguna duda? algun error? Mandame Mp ñ_ñ

  2. #2
    Usuario Dw
    Fecha de ingreso
    02 feb, 12
    Mensajes
    29
    Poder de reputación
    0
    Re: Piranha 3D(2D)(2010)(HDrip)(Castellano AC3 5.1)(Terror)[1Link]
    Todos los enlaces KO (wupload ya no vale para compartir) :-(

Temas similares

  1. Piranha (Piraña 3D) (Español Latino) (BRrip) (2010) -1 Link
    Por johnalex81 en el foro HDRip , HDTV y BRrip
    Respuestas: 0
    Último mensaje: 05/09/2011, 14:37
  2. Respuestas: 0
    Último mensaje: 02/09/2011, 18:47
  3. [FS] Piranha 2010 ESP
    Por doblefoul en el foro Películas DVD
    Respuestas: 2
    Último mensaje: 05/11/2010, 08:52

Etiquetas para este tema

Permisos de Publicación

  • No puedes crear nuevos temas
  • No puedes responder temas
  • No puedes subir archivos adjuntos
  • No puedes editar tus mensajes
  •