TÍTULO ORIGINAL North by Northwest
AÑO
1959
DURACIÓN
136 min. Trailers/Vídeos
PAÍS
[Estados Unidos] Sección visual
DIRECTOR Alfred Hitchcock
GUIÓN Ernest Lehman
MÚSICA Bernard Herrmann
FOTOGRAFÍA Robert Burks
REPARTO Cary Grant, Eva Marie Saint, James Mason, Martin Landau, Leo G. Carroll, Josephine Hutchinson, Philip Ober, Edward Platt, Adam Williams, Jessie Royce Landis, Alfred Hitchcock
PRODUCTORA Metro-Goldwyn-Mayer
PREMIOS 1959: 3 nominaciones al Oscar: Mejor guión, montaje, dirección artística
1959: Festival de San Sebastian: Mejor director (ex-aequo)
GÉNERO Intriga | Espionaje
SINOPSIS Debido a un malentendido, a Roger O. Thornhill, un ejecutivo del mundo de la publicidad, unos espías lo confunden con un agente del gobierno llamado George Kaplan. Secuestrado por tres individuos y llevado a una mansión en la que es interrogado, consigue huir antes de que lo maten. Cuando al día siguiente regresa a la casa acompañado de la policía, no hay rastro de las personas que había descrito.










código:
General
Complete name                            : D:\\clmt.mh\Con la muerte en los talones.evilsega.avi
Format                                   : AVI
Format/Info                              : Audio Video Interleave
Format profile                           : OpenDML
File size                                : 2.06 GiB
Duration                                 : 2h 16mn
Overall bit rate                         : 2 165 Kbps
Writing application                      : VirtualDubMod 1.5.10.2 (build 2540/release)
Writing library                          : VirtualDubMod build 2540/release

Video
ID                                       : 0
Format                                   : MPEG-4 Visual
Format profile                           : Advanced Simple@L5
Format settings, BVOP                    : 2
Format settings, QPel                    : No
Format settings, GMC                     : No warppoints
Format settings, Matrix                  : Default (MPEG)
Codec ID                                 : XVID
Codec ID/Hint                            : XviD
Duration                                 : 2h 16mn
Bit rate                                 : 1 762 Kbps
Width                                    : 720 pixels
Height                                   : 400 pixels
Display aspect ratio                     : 16:9
Frame rate                               : 23.976 fps
Color space                              : YUV
Chroma subsampling                       : 4:2:0
Bit depth                                : 8 bits
Scan type                                : Progressive
Compression mode                         : Lossy
Bits/(Pixel*Frame)                       : 0.255
Stream size                              : 1.68 GiB (81%)
Writing library                          : XviD 1.2.1 (UTC 2008-12-04)

Audio #1
ID                                       : 1
Format                                   : AC-3
Format/Info                              : Audio Coding 3
Mode extension                           : CM (complete main)
Codec ID                                 : 2000
Duration                                 : 2h 16mn
Bit rate mode                            : Constant
Bit rate                                 : 192 Kbps
Channel(s)                               : 2 channels
Channel positions                        : Front: L R
Sampling rate                            : 48.0 KHz
Bit depth                                : 16 bits
Compression mode                         : Lossy
Stream size                              : 187 MiB (9%)
Alignment                                : Split accross interleaves
Interleave, duration                     : 42 ms (1.00 video frame)
Interleave, preload duration             : 500 ms

Audio #2
ID                                       : 2
Format                                   : AC-3
Format/Info                              : Audio Coding 3
Mode extension                           : CM (complete main)
Codec ID                                 : 2000
Duration                                 : 2h 16mn
Bit rate mode                            : Constant
Bit rate                                 : 192 Kbps
Channel(s)                               : 6 channels
Channel positions                        : Front: L C R, Side: L R, LFE
Sampling rate                            : 48.0 KHz
Bit depth                                : 16 bits
Compression mode                         : Lossy
Stream size                              : 187 MiB (9%)
Alignment                                : Split accross interleaves
Interleave, duration                     : 42 ms (1.00 video frame)
Interleave, preload duration             : 500 ms













[Solo usuarios registrados a DowntWarez.Com puede ver los links. ] la muerte en los talones.evilsega.part1.rar
[Solo usuarios registrados a DowntWarez.Com puede ver los links. ] la muerte en los talones.evilsega.part3.rar
[Solo usuarios registrados a DowntWarez.Com puede ver los links. ] la muerte en los talones.evilsega.part4.rar
[Solo usuarios registrados a DowntWarez.Com puede ver los links. ] la muerte en los talones.evilsega.part2.rar







[Solo usuarios registrados a DowntWarez.Com puede ver los links. ] la muerte en los talones.evilsega.part1.rar/
[Solo usuarios registrados a DowntWarez.Com puede ver los links. ] la muerte en los talones.evilsega.part2.rar/
[Solo usuarios registrados a DowntWarez.Com puede ver los links. ] la muerte en los talones.evilsega.part3.rar/
[Solo usuarios registrados a DowntWarez.Com puede ver los links. ] la muerte en los talones.evilsega.part4.rar/







[Solo usuarios registrados a DowntWarez.Com puede ver los links. ] la muerte en los talones.evilsega.part2.rar
[Solo usuarios registrados a DowntWarez.Com puede ver los links. ] la muerte en los talones.evilsega.part4.rar
[Solo usuarios registrados a DowntWarez.Com puede ver los links. ] la muerte en los talones.evilsega.part3.rar
[Solo usuarios registrados a DowntWarez.Com puede ver los links. ] la muerte en los talones.evilsega.part1.rar