TÍTULO ORIGINAL The Cider House Rules
AÑO
1999
DURACIÓN
125 min. Trailers/Vídeos
PAÍS
[Estados Unidos] Sección visual
DIRECTOR Lasse Hallström
GUIÓN John Irving (Novela: John Irving)
MÚSICA Rachel Portman
FOTOGRAFÍA Oliver Stapleton
REPARTO Tobey Maguire, Charlize Theron, Michael Caine, Delroy Lindo, Paul Rudd, Jane Alexander, Kathy Baker, Kieran Culkin, Heavy D, Kate Nelligan, Erykah Badu
PRODUCTORA Miramax International / Alliance Atlantis
PREMIOS 1999: 2 Oscars: Mejor actor secundario (Michael Caine), guión adaptado. 7 Nominaciones
1999: Nominada BAFTA: Mejor actor secundario (Michael Caine)
1999: National Board of Review: Mejor guión
1999: Nominada al León de Oro en el Festival de Venecia: Director (Lasse Hallström)
GÉNERO Drama. Romance | Adopción
SINOPSIS Homer Wells (Tobey Maguire) ha vivido durante toda su vida entre las paredes del aislado orfanato de St Cloud. Cuando llega a la adolescencia, el director del centro, el doctor Larch (Michael Caine), lo prepara para ser su sucesor. Pero el joven siente la necesidad de abandonar el orfanato y conocer el mundo. Cautivado por la belleza de una chica (Charlize Theron) que visita el orfanato, Homer decide que ha llegado la hora de partir. (FILMAFFINITY)








código:
General
Complete name                            : D:\las normas de la casa de la sidra Evilsega.avi
Format                                   : AVI
Format/Info                              : Audio Video Interleave
File size                                : 1.92 GiB
Duration                                 : 2h 0mn
Overall bit rate                         : 2 289 Kbps

Video
ID                                       : 0
Format                                   : MPEG-4 Visual
Format profile                           : Simple@L3
Format settings, BVOP                    : No
Format settings, QPel                    : No
Format settings, GMC                     : No warppoints
Format settings, Matrix                  : Default (H.263)
Codec ID                                 : XVID
Codec ID/Hint                            : XviD
Duration                                 : 2h 0mn
Bit rate                                 : 1 830 Kbps
Width                                    : 720 pixels
Height                                   : 320 pixels
Display aspect ratio                     : 2.25:1
Frame rate                               : 25.000 fps
Color space                              : YUV
Chroma subsampling                       : 4:2:0
Bit depth                                : 8 bits
Scan type                                : Progressive
Compression mode                         : Lossy
Bits/(Pixel*Frame)                       : 0.318
Stream size                              : 1.54 GiB (80%)
Writing library                          : XviD 1.1.2 (UTC 2006-11-01)

Audio
ID                                       : 1
Format                                   : AC-3
Format/Info                              : Audio Coding 3
Mode extension                           : CM (complete main)
Codec ID                                 : 2000
Duration                                 : 2h 0mn
Bit rate mode                            : Constant
Bit rate                                 : 448 Kbps
Channel(s)                               : 6 channels
Channel positions                        : Front: L C R, Side: L R, LFE
Sampling rate                            : 48.0 KHz
Bit depth                                : 16 bits
Compression mode                         : Lossy
Stream size                              : 385 MiB (20%)
Alignment                                : Aligned on interleaves
Interleave, duration                     : 32 ms (0.80 video frame)
Interleave, preload duration             : 1024 ms












[Solo usuarios registrados a DowntWarez.Com puede ver los links. ] normas de la casa de la sidra Evilsega.part4.rar
[Solo usuarios registrados a DowntWarez.Com puede ver los links. ] normas de la casa de la sidra Evilsega.part3.rar
[Solo usuarios registrados a DowntWarez.Com puede ver los links. ] normas de la casa de la sidra Evilsega.part1.rar
[Solo usuarios registrados a DowntWarez.Com puede ver los links. ] normas de la casa de la sidra Evilsega.part2.rar






[Solo usuarios registrados a DowntWarez.Com puede ver los links. ] normas de la casa de la sidra Evilsega.part1.rar/
[Solo usuarios registrados a DowntWarez.Com puede ver los links. ] normas de la casa de la sidra Evilsega.part2.rar/
[Solo usuarios registrados a DowntWarez.Com puede ver los links. ] normas de la casa de la sidra Evilsega.part3.rar/
[Solo usuarios registrados a DowntWarez.Com puede ver los links. ] normas de la casa de la sidra Evilsega.part4.rar/





[Solo usuarios registrados a DowntWarez.Com puede ver los links. ] normas de la casa de la sidra Evilsega.part4.rar
[Solo usuarios registrados a DowntWarez.Com puede ver los links. ] normas de la casa de la sidra Evilsega.part2.rar
[Solo usuarios registrados a DowntWarez.Com puede ver los links. ] normas de la casa de la sidra Evilsega.part1.rar
[Solo usuarios registrados a DowntWarez.Com puede ver los links. ] normas de la casa de la sidra Evilsega.part3.rar