Dirección: Uwe Boll.
Países: Canadá, Alemania y USA.
Año: 2005.
Duración: 96 min.
Género: Terror.
Interpretación: Christian Slater (Edward Carnby), Tara Reid (Aline Cedrac), Stephen Dorff (Comandante Richards), Will Sanderson (Agente Miles), Ed Anders (James Pinkerton), Robert Bruce (Crewman Barnes), Daniel Cudmore (Agente Barr), Mike Dopud (Turner), John Fallon (Agente Yoneck), Catherine Lough Haggquist (Krashinsky).
Guión: Elan Mastai, Michael Roesch y Peter Scheerer; basado en el videojuego.
Producción: Shawn Williamson.
Música: Bernd Wendlandt y Reinhard Besser.
Fotografía: Mathias Neumann.
Montaje: Richard Schwadel.
Diseño de producción: Tink.
Dirección artística: Peter Stratford.
Vestuario: Maria Livingstone.
Estreno en España: 20 Enero 2006.

SINOPSIS
Te levantas en mitad de la noche con la sen-sación de que hay alguien en tu habitación. Te atraviesa un rayo de miedo cuando buscas a tientas la lámpara de noche. Pero cuando en-ciendes la luz, no hay nadie ahí. Podrías sen-tirte seguro... pero sólo por el hecho de que no veas a nadie ahí no significa que no haya nadie ahí. Observando. Esperando. Respiran-do entre las sutiles fronteras de la realidad y la imaginación. Hay un mundo alrededor nuestro, un mundo que la mayoría de nosotros no consigue nunca vislumbrar, o nunca quiere ver. De niño, Edward Carnby (Christian Slater) tuvo una prueba irrefutable de ese mundo. No ha dormido bien desde entonces. Ahora, veinte años después, Edward es un investigador de efectos paranormales. Cuando lo irra-cional y lo inexplicable se vuelven innegables, allí está. No acude para que cambies de parecer. Sino porque quizás seas el único que pueda salvarte la vida. Ahora, el gran misterio del pasado de Edward está a punto de convertirse en el caso más peligroso al que se ha enfrentado jamás. Han desaparecido diecinueve personas, y comparten una sola cosa en común, todos han crecido en el mis-mo orfanato que Edward. Tratando de encontrar alguna respuesta, Edward descubre que se halló un antiguo artefacto de bastante energía de un remoto naufragio. En medio del creciente peligro, re-curre a Aline Cedrac (Tara Reid), una brillante antropóloga quien también es una antigua novia suya, y la única persona de la que realmente se fía. En un mundo de viejos demonios, civilizaciones perdidas, conspiraciones oscuras de gobierno, y de amenazas de muerte paranormales, Edward y Aline se alían para enfrentarse al enemigo supranatural diferente a todo lo que han visto hasta aho-ra? un ser cuya sóla existencia podría amenazar a la humanidad entera.








código:
General
Complete name                    : E:\alone in the dark Evilsega.avi
Format                           : AVI
Format/Info                      : Audio Video Interleave
File size                        : 1.95 GiB
Duration                         : 1h 34mn
Overall bit rate                 : 2 964 Kbps

Video
ID                               : 0
Format                           : MPEG-4 Visual
Format profile                   : Simple@L3
Format settings, BVOP            : No
Format settings, QPel            : No
Format settings, GMC             : No warppoints
Format settings, Matrix          : Default (H.263)
Codec ID                         : XVID
Codec ID/Hint                    : XviD
Duration                         : 1h 34mn
Bit rate                         : 2 505 Kbps
Width                            : 720 pixels
Height                           : 400 pixels
Display aspect ratio             : 16:9
Frame rate                       : 25.000 fps
Color space                      : YUV
Chroma subsampling               : 4:2:0
Bit depth                        : 8 bits
Scan type                        : Progressive
Compression mode                 : Lossy
Bits/(Pixel*Frame)               : 0.348
Stream size                      : 1.65 GiB (85%)
Writing library                  : XviD 1.1.2 (UTC 2006-11-01)

Audio
ID                               : 1
Format                           : AC-3
Format/Info                      : Audio Coding 3
Mode extension                   : CM (complete main)
Codec ID                         : 2000
Duration                         : 1h 34mn
Bit rate mode                    : Constant
Bit rate                         : 448 Kbps
Channel(s)                       : 6 channels
Channel positions                : Front: L C R, Side: L R, LFE
Sampling rate                    : 48.0 KHz
Bit depth                        : 16 bits
Compression mode                 : Lossy
Stream size                      : 302 MiB (15%)
Alignment                        : Aligned on interleaves
Interleave, duration             : 32 ms (0.80 video frame)
Interleave, preload duration     : 864 ms












[Solo usuarios registrados a DowntWarez.Com puede ver los links. ] in the dark Evilsega.part2.rar
[Solo usuarios registrados a DowntWarez.Com puede ver los links. ] in the dark Evilsega.part3.rar
[Solo usuarios registrados a DowntWarez.Com puede ver los links. ] in the dark Evilsega.part4.rar
[Solo usuarios registrados a DowntWarez.Com puede ver los links. ] in the dark Evilsega.part5.rar
[Solo usuarios registrados a DowntWarez.Com puede ver los links. ] in the dark Evilsega.part1.rar







[Solo usuarios registrados a DowntWarez.Com puede ver los links. ] in the dark Evilsega.part2.rar
[Solo usuarios registrados a DowntWarez.Com puede ver los links. ] in the dark Evilsega.part4.rar
[Solo usuarios registrados a DowntWarez.Com puede ver los links. ] in the dark Evilsega.part5.rar
[Solo usuarios registrados a DowntWarez.Com puede ver los links. ] in the dark Evilsega.part1.rar
[Solo usuarios registrados a DowntWarez.Com puede ver los links. ] in the dark Evilsega.part3.rar