TÍTULO ORIGINAL Scary Movie 2
AÑO
2001
DURACIÓN
83 min. Trailers/Vídeos
PAÍS
[Estados Unidos] Sección visual
DIRECTOR Keenen Ivory Wayans
GUIÓN Shawn Wayans, Marlon Wayans & More
MÚSICA Varios
FOTOGRAFÍA Steven Bernstein
REPARTO Shawn Wayans, Marlon Wayans, Anna Faris, Regina Hall, Christopher Masterson, David Cross, James Debello, Tim Curry, James Woods, Tori Spelling, Veronica Cartwright. Chris Elliott
PRODUCTORA Miramax International / Dimension Films
GÉNERO Comedia. Terror | Comedia de terror. Parodia. Secuela



SINOPSIS Un profesor loco recluta a una chica y un grupo de compañeros, deseosos de vivir aventuras y nuevas experiencias, para una salida de fin de semana. Una vez allí todos se instalan, con el pretexto de realizar un experimento científico sobre desórdenes del sueño, en una casona que resulta estar embrujada, lo cual es adecuado para el propósito real del profesor. Durante la estancia en la casa, los estudiantes se dan cuenta de que la casa está llena de espectros, principalmente el del dueño anterior, quien fue probable responsable de un asesinato pasional cometido años atrás en aquel lugar. (FILMAFFINITY)






código:
General
Complete name                    : E:\scary movie 2 Evilsega.avi
Format                           : AVI
Format/Info                      : Audio Video Interleave
File size                        : 1.98 GiB
Duration                         : 1h 19mn
Overall bit rate                 : 3 582 Kbps

Video
ID                               : 0
Format                           : MPEG-4 Visual
Format profile                   : Simple@L3
Format settings, BVOP            : No
Format settings, QPel            : No
Format settings, GMC             : No warppoints
Format settings, Matrix          : Default (H.263)
Codec ID                         : XVID
Codec ID/Hint                    : XviD
Duration                         : 1h 19mn
Bit rate                         : 3 123 Kbps
Width                            : 720 pixels
Height                           : 400 pixels
Display aspect ratio             : 16:9
Frame rate                       : 25.000 fps
Color space                      : YUV
Chroma subsampling               : 4:2:0
Bit depth                        : 8 bits
Scan type                        : Progressive
Compression mode                 : Lossy
Bits/(Pixel*Frame)               : 0.434
Stream size                      : 1.72 GiB (87%)
Writing library                  : XviD 1.1.2 (UTC 2006-11-01)

Audio
ID                               : 1
Format                           : AC-3
Format/Info                      : Audio Coding 3
Mode extension                   : CM (complete main)
Codec ID                         : 2000
Duration                         : 1h 19mn
Bit rate mode                    : Constant
Bit rate                         : 448 Kbps
Channel(s)                       : 6 channels
Channel positions                : Front: L C R, Side: L R, LFE
Sampling rate                    : 48.0 KHz
Bit depth                        : 16 bits
Compression mode                 : Lossy
Stream size                      : 253 MiB (13%)
Alignment                        : Aligned on interleaves
Interleave, duration             : 32 ms (0.80 video frame)












[Solo usuarios registrados a DowntWarez.Com puede ver los links. ] movie 2 Evilsega.part4.rar
[Solo usuarios registrados a DowntWarez.Com puede ver los links. ] movie 2 Evilsega.part1.rar
[Solo usuarios registrados a DowntWarez.Com puede ver los links. ] movie 2 Evilsega.part2.rar
[Solo usuarios registrados a DowntWarez.Com puede ver los links. ] movie 2 Evilsega.part3.rar







[Solo usuarios registrados a DowntWarez.Com puede ver los links. ] movie 2 Evilsega.part3.rar
[Solo usuarios registrados a DowntWarez.Com puede ver los links. ] movie 2 Evilsega.part2.rar
[Solo usuarios registrados a DowntWarez.Com puede ver los links. ] movie 2 Evilsega.part1.rar
[Solo usuarios registrados a DowntWarez.Com puede ver los links. ] movie 2 Evilsega.part4.rar