Gran Torino (2008) [HDrip] [Castellano] [Drama]

Titulo: Gran Torino
Titulo original: Gran Torino
Direccion: Clint Eastwood
Pais: Estados Unidos, Australia
Ano: 2008
Duracion: 116 min.
Genero: Criminal, Drama
Reparto: Clint Eastwood, Christopher Carley, Bee Vang, Ahney Her, Brian Haley, Geraldine Hughes, Dreama Walker, Brian Howe, John Carroll Lynch, William Hill, Brooke Chia Thao, Chee Thao, Choua Kue, Scott Eastwood, Xia Soua Chang, Sonny Vue, Doua Moua, Greg Trzaskoma, John Johns, Davis Gloff, Thomas D. Mahard, Cory Hardrict, Nana Gbewonyo, Arthur Cartwright, Austin Douglas Smith, Conor Liam Callaghan, Michael E. Kurowski, Julia Ho, Maykao K. Lytongpao, Carlos Guadarrama, Andrew Tamez-Hull, Ramon Camacho, Antonio Mireles, Ia Vue Yang, Zoua Kue, Elvis Thao, Jerry Lee, Lee Mong Vang, Tru Hang, Alice Lor, Tong Pao Kue, Douacha Ly, Parng D. Yarng, Nelly Yang Sao Yia, Marty Bufalini, My-Ishia Cason-Brown, Clint Ward, Stephen Kue, Rochelle Winter, Claudia Rodgers, Vincent Bonasso
Guion: Nick Schenk
Productora: Warner Bros., Village Roadshow Pictures, Malpaso Productions, Gerber Pictures, Double Nickel Entertainment, Media Magik Entertainment, Matten Productions

sinopsis
Walt Kowalski (Clint Eastwood) es un veterano de la guerra de Corea de caracter aspero que un dia sorprende a su vecino adolescente (Lee Mong Vang) robando su posesion mas querida: un coche Gran Torino del ano 1972. Desde ese momento, Kowalski se empenara en reformar al chico. Mientras tanto, su propio hijo intentara meterle en un asilo


Media Info:

Format : AVI
Format/Info : Audio Video Interleave
Format profile : OpenDML
File size : 2.16 GiB
Duration : 1h 56mn
Overall bit rate : 2 649 Kbps
Writing application : VirtualDubMod 1.5.10.2 (build 2540/release)
Writing library : VirtualDubMod build 2540/release

Video

ID : 0
Format : MPEG-4 Visual
Format profile : Advanced Simple@L5
Format settings, BVOP : 2
Format settings, QPel : No
Format settings, GMC : No warppoints
Format settings, Matrix : Default (H.263)
Codec ID : XVID
Codec ID/Hint : XviD
Duration : 1h 56mn
Bit rate : 1 895 Kbps
Width : 720 pixels
Height : 304 pixels
Display aspect ratio : 2.35:1
Frame rate : 23.976 fps
Color space : YUV
Chroma subsampling : 4:2:0
Bit depth : 8 bits
Scan type : Progressive
Compression mode : Lossy
Bits/(Pixel*Frame) : 0.361
Stream size : 1.54 GiB (72%)
Writing library : XviD 1.1.2 (UTC 2006-11-01)

Audio

ID : 1
Format : AC-3
Format/Info : Audio Coding 3
Mode extension : CM (complete main)
Codec ID : 2000
Duration : 1h 56mn
Bit rate mode : Constant
Bit rate : 640 Kbps
Channel(s) : 6 channels
Channel positions : Front: L C R, Side: L R, LFE
Sampling rate : 48.0 KHz
Bit depth : 16 bits
Compression mode : Lossy
Stream size : 534 MiB (24%)
Alignment : Split accross interleaves











código:
http://uploadstation.com/list/kvk9NCV