Torrente 4 Crisis Letal 2011 BDRip 1080p Mkv Castellano;AC3;DTS Comedia Española








TÍTULO ORIGINAL Torrente 4: Lethal Crisis (Crisis Letal)
AÑO 2011
DURACIÓN 93 min.
PAÍS [España]
DIRECTOR Santiago Segura
GUIÓN Santiago Segura
MÚSICA Roque Baños
FOTOGRAFÍA Teo Delgado
REPARTO Santiago Segura, Kiko Rivera, Tony Leblanc, Enrique Villén, Francisco, Yon González, Yolanda Ramos, Jimmy Roca, David Fernández, Xavier Deltell, Cañita Brava, Barragán, Javier Gutiérrez, Kiko Matamoros, J.M. Montilla "El Langui", David Muro, Belén Esteban, Carmen de Mairena, María Patiño, Carmen Martínez-Bordiú, María Lapiedra, David Bisbal, Kun Agüero, Risto Mejide, Ernesto Sevilla, Pablo Motos, Florentino Fernández, Andreu Buenafuente, Silvia Abril, Joselito, Emma Ozores, Juanito Navarro, Sergio Ramos, Cesc Fàbregas, Álvaro Arbeloa, Gonzalo Higuaín, Mari Cielo Pajares, Octavio Acebes, David Castillo, Ana Obregón, El Dioni, John Cobra, Carlos Areces, José Mota, Fernando Esteso, David Summers, El Gran Wyoming
PRODUCTORA Amiguetes Entertainment
GÉNERO Comedia | Policíaco. Secuela.




código:
General
Complete name : Torrente.4.Crisis.Letal.1080p.CadagotoHD
Format : Matroska
File size : 11.9 GiB
Duration : 1h 36mn
Overall bit rate : 17.6 Mbps
Movie name : Torrente 4: Lethal Crisis (Crisis Letal) 1080p
Writing application : mkvmerge v3.3.0 ('Language') built on Mar 24 2010 14:59:24
Writing library : libebml v0.8.0 + libmatroska v0.9.0

Video
ID : 1
Format : AVC
Format/Info : Advanced Video Codec
Format profile : Main@L4.1
Format settings, CABAC : Yes
Format settings, ReFrames : 4 frames
Format settings, GOP : M=3, N=25
Codec ID : V_MPEG4/ISO/AVC
Duration : 1h 36mn
Bit rate : 13.7 Mbps
Width : 1 920 pixels
Height : 1 032 pixels
Display aspect ratio : 1.860
Frame rate mode : Variable
Frame rate : 24.000 fps
Color space : YUV
Chroma subsampling : 4:2:0
Bit depth : 8 bits
Scan type : Progressive
Bits/(Pixel*Frame) : 0.289
Stream size : 9.42 GiB (79%)
Title : Torrente 4: Lethal Crisis (Crisis Letal) 1080p -Montaje Por -Andres.sito1992-

Audio #1
ID : 2
Format : DTS
Format/Info : Digital Theater Systems
Format profile : MA / Core
Codec ID : A_DTS
Duration : 1h 36mn
Bit rate mode : Variable
Bit rate : 2 026 Kbps / 1 510 Kbps
Channel(s) : 8 channels / 6 channels
Channel positions : Front: L C R, Side: L R, Back: L R, LFE / Front: L C R, Side: L R, LFE
Sampling rate : 48.0 KHz
Bit depth : 16 bits
Compression mode : Lossless / Lossy
Title : Audio DTS-HD Castellano
Language : Spanish

Audio #2
ID : 3
Format : AC-3
Format/Info : Audio Coding 3
Mode extension : CM (complete main)
Codec ID : A_AC3
Duration : 1h 36mn
Bit rate mode : Constant
Bit rate : 640 Kbps
Channel(s) : 6 channels
Channel positions : Front: L C R, Side: L R, LFE
Sampling rate : 48.0 KHz
Bit depth : 16 bits
Compression mode : Lossy
Stream size : 442 MiB (4%)
Title : Audio Castellano AC3
Language : Spanish

Audio #3
ID : 4
Format : DTS
Format/Info : Digital Theater Systems
Format profile : MA / Core
Codec ID : A_DTS
Duration : 1h 36mn
Bit rate mode : Variable
Bit rate : 594 Kbps / 384 Kbps
Channel(s) : 2 channels
Channel positions : Front: L R
Sampling rate : 48.0 KHz
Bit depth : 16 bits
Compression mode : Lossless / Lossy
Title : Audio Comentarios Castellano
Language : Spanish

Text
ID : 5
Format : UTF-8
Codec ID : S_TEXT/UTF8
Codec ID/Info : UTF-8 Plain Text
Title : Subtitulos Castellano Completos
Language : Spanish

Cuarta entrega de las aventuras del casposo policía José Luis Torrente. En esta ocasión encontramos a nuestro (anti)héroe en una situación delicada. Tras varios intentos fallidos de llevar una vida digna (como si eso fuese posible atrapado en su propia piel), decide aceptar un peligroso encargo que le hace un viejo conocido. Tendrá que afrontar entonces uno de los momentos mas críticos de su carrera. Todo empieza con Torrente ante la tumba de "El Fary", lamentando la muerte del cantante, así como que "los maricones ahora se casen", o que "hayan puesto a un negro en la Casa Blanca, y no para limpiar"...



Los Links Estan Alojados En Los Siguientes Servidores!
Archivos De 1 GB Mb Intercambiables!




Descarga Aqui

Download misc Torrente.4.Crisis.Letal.1080p.CadagotoHD









.
Si Los Links No Estan On-Line,avisame Asi Tratare De Reponerlos!

Aportar Toma Buen Tiempo,Resubir Mucho Mas ,Agradecer No Cuesta Nada !