=============
FICHA TÉCNICA
=============

TÍTULO ORIGINAL: Falling Skies (TV Series)
AÑO: 2011
DURACIÓN: 40 min.
PAÍS: Estados Unidos
DIRECTOR: Robert Rodat (Creator), Carl Franklin, Greg Beeman
GUIÓN: Robert Rodat
MÚSICA: Noah Sorota
FOTOGRAFÍA: Christopher Faloona
REPARTO: Noah Wyle, Robert Rodat, Will Patton, Drew Roy, Connor Jessup, Seychelle Gabriel, Colin Cunningham, Sarah Carter
PRODUCTORA: Emitida por la cadena TNT; DreamWorks Television / Invasion Productions. Productor: Steven Spielberg
WEB OFICIAL: [Solo usuarios registrados a DowntWarez.Com puede ver los links. ]
GÉNERO: Serie de TV. Ciencia ficción. Drama. Acción | Extraterrestres. Futuro postapocalíptico

=============
Falling Skies
=============

Tamaño: 350 MB | HDTV | AVI | 2011 | Español Latino |624 x 352 | Capitulo: 1

=============
SINÓPSIS
=============

Falling Skies es una serie creada por Steven Spielberg y Robert Rodat para TNT. La serie comienza en el caos que sigue a un ataque alienígena que ha dejado gran parte del mundo completamente incapacitado. En los seis meses transcurridos desde la invasión inicial, los pocos supervivientes se han agrupado fuera de las ciudades principales para comenzar la difí*cil tarea de luchar.

Tom Mason es un profesor de historia de Boston, cuya familia ha sido destrozada. Su esposa murió en el ataque inicial, y uno de sus tres hijos ha sido capturado. Decidido a recuperar a su hijo y para garantizar la seguridad de sus otros dos hijos, Tom debe poner su amplio conocimiento de la historia militar a prueba como uno de los lí*deres del movimiento de resistencia.

Se centra en la resistencia de los supervivientes y su determinación de mantener su humanidad cuando todo lo demás ha sido destruido

=============
NFO
=============

código:
GeneralFormat                           : AVI
Format/Info                      : Audio Video Interleave
File size                        : 350 MiB
Duration                         : 41mn 7s
Overall bit rate                 : 1 190 Kbps
Writing application              : VirtualDubMod 1.5.10.2 (build 2542/release)
Writing library                  : VirtualDubMod build 2542/release

Video
ID                               : 0
Format                           : MPEG-4 Visual
Format profile                   : Advanced Simple@L5
Format settings, BVOP            : 1
Format settings, QPel            : No
Format settings, GMC             : No warppoints
Format settings, Matrix          : Default (H.263)
Muxing mode                      : Packed bitstream
Codec ID                         : XVID
Codec ID/Hint                    : XviD
Duration                         : 41mn 7s
Bit rate                         : 1 053 Kbps
Width                            : 624 pixels
Height                           : 352 pixels
Display aspect ratio             : 16:9
Frame rate                       : 23.976 fps
Color space                      : YUV
Chroma subsampling               : 4:2:0
Bit depth                        : 8 bits
Scan type                        : Progressive
Compression mode                 : Lossy
Bits/(Pixel*Frame)               : 0.200
Stream size                      : 310 MiB (88%)
Writing library                  : XviD 62

Audio
ID                               : 1
Format                           : MPEG Audio
Format version                   : Version 1
Format profile                   : Layer 3
Codec ID                         : 55
Codec ID/Hint                    : MP3
Duration                         : 41mn 3s
Bit rate mode                    : Constant
Bit rate                         : 128 Kbps
Channel(s)                       : 2 channels
Sampling rate                    : 44.1 KHz
Compression mode                 : Lossy
Stream size                      : 37.6 MiB (11%)
Alignment                        : Split accross interleaves
Interleave, duration             : 42 ms (1.00 video frame)
Interleave, preload duration     : 500 ms
Writing library                  : LAME3.98


=============

CAPTURAS
=============




=============

TRAILER
=============

MIRALO ONLINE

[Solo usuarios registrados a DowntWarez.Com puede ver los links. ]

=============
DESCARGAS
=============

================

** FILESERVE **
================

Contenido Oculto, debes [Solo usuarios registrados a DowntWarez.Com puede ver los links. ] para poder ver lo que hay dentro :)


================
** UPLOADED **
================

Contenido Oculto, debes [Solo usuarios registrados a DowntWarez.Com puede ver los links. ] para poder ver lo que hay dentro :)


================
** WUPLOAD **
================

Contenido Oculto, debes [Solo usuarios registrados a DowntWarez.Com puede ver los links. ] para poder ver lo que hay dentro :)