Resultados 1 al 10 de 10
  1. #1
    Usuario Dw Avatar de ubuntu2008
    Fecha de ingreso
    28 feb, 11
    Mensajes
    52
    Poder de reputación
    15
    Megapost Películas Full HD 1080p Audio Latino [FS] 4GB
    El Transportador 3



    Tamaño de la película : 4. GB

    Video

    Formato : AVC -M2TS
    Duración : 1h 43min.
    Tasa de bits : 5152Kbps
    Ancho : 1920pixeles
    Alto : 1080pixeles
    Relación de aspecto : 16:9
    Velocidad de cuadro : 23,976fps
    Tamaño de pista : 3,79GIB (88%)

    Audio

    Formato : AC-3
    Duración : 1h 43min.
    Tasa de bits : 448Kbps
    Canal(es) : 6canales
    Tamaño de pista : 333MB (8%)
    Idioma : Español Latino

    Links


    [HIDE]http://www.fileserve.com/file/uUmnG3V
    http://www.fileserve.com/file/N3eCwn3
    http://www.fileserve.com/file/sHTjDSm
    http://www.fileserve.com/file/m6nwjYd
    http://www.fileserve.com/file/hSDvu7n
    http://www.fileserve.com/file/Sz267CD
    http://www.fileserve.com/file/AjxTVRh
    http://www.fileserve.com/file/7ySQxbd
    http://www.fileserve.com/file/MQuSEWX
    http://www.fileserve.com/file/Y4HB62S

    Mirror FileJungle

    http://www.filejungle.com/f/UKjamM
    http://www.filejungle.com/f/3Jsbqw
    http://www.filejungle.com/f/V2ubwW
    http://www.filejungle.com/f/khPjKp
    http://www.filejungle.com/f/9b659y
    http://www.filejungle.com/f/7gbDur
    http://www.filejungle.com/f/tRCJQW
    http://www.filejungle.com/f/wtCEKa
    http://www.filejungle.com/f/c4kYRC
    http://www.filejungle.com/f/2p6dkG

    Mirror Filepost

    http://filepost.com/files/c5m2e3a2/El_Transportador_3_[1080p].part01.rar
    http://filepost.com/files/72ad6943/El_Transportador_3_[1080p].part02.rar
    http://filepost.com/files/mb4766ma/El_Transportador_3_[1080p].part03.rar
    http://filepost.com/files/1a1ac7ff/El_Transportador_3_[1080p].part04.rar
    http://filepost.com/files/42fa9acc/El_Transportador_3_[1080p].part05.rar
    http://filepost.com/files/9154ma78/El_Transportador_3_[1080p].part06.rar
    http://filepost.com/files/m67fcf66/El_Transportador_3_[1080p].part07.rar
    http://filepost.com/files/b51847ee/El_Transportador_3_[1080p].part08.rar
    http://filepost.com/files/1297mf1d/El_Transportador_3_[1080p].part09.rar
    http://filepost.com/files/15d5528e/El_Transportador_3_[1080p].part10.rar
    [/HIDE]

    Rapido & Furioso 4



    Tamaño de la película : 4 GB

    Video

    Formato : AVC
    Tasa de bits : 5017Kbps
    Ancho : 1920pixeles
    Alto : 1080pixeles
    Relación de aspecto : 16:9
    Velocidad de cuadro : 23,976fps
    Tamaño de pista : 3,53GIB (88%)

    Audio

    Formato : AC-3
    Duración : 1h 39min.
    Tasa de bits : 448Kbps
    Canal(es) : 6canales
    Tamaño de pista : 319MB (8%)
    Language : Español Latino

    Links


    [HIDE]http://www.fileserve.com/file/JRTjqQT
    http://www.fileserve.com/file/zjTVbvW
    http://www.fileserve.com/file/qqdYQDH
    http://www.fileserve.com/file/cEkwjFW
    http://www.fileserve.com/file/SZpYrvQ
    http://www.fileserve.com/file/9Fuz3eq
    http://www.fileserve.com/file/h2nnNUH
    http://www.fileserve.com/file/NphJ7qs
    http://www.fileserve.com/file/dVJDxAk
    http://www.fileserve.com/file/Kwavz5R
    http://www.fileserve.com/file/shCQH5S
    http://www.fileserve.com/file/38UuxDM

    Mirror FileJungle

    http://www.filejungle.com/f/2xKEsa
    http://www.filejungle.com/f/S4ysxB
    http://www.filejungle.com/f/jea7hQ
    http://www.filejungle.com/f/MQ9PD8
    http://www.filejungle.com/f/UEhK9n
    http://www.filejungle.com/f/bTvKMA
    http://www.filejungle.com/f/TpkS4s
    http://www.filejungle.com/f/7fMVx5
    http://www.filejungle.com/f/VHAU3A
    http://www.filejungle.com/f/3HecW6


    Mirror Filepost

    http://filepost.com/files/ef2e54f1/Rapido_&_Furioso_4[1080p].part01.rar
    http://filepost.com/files/5beab35e/Rapido_&_Furioso_4[1080p].part02.rar
    http://filepost.com/files/74c86bd4/Rapido_&_Furioso_4[1080p].part03.rar
    http://filepost.com/files/eb66m3m9/Rapido_&_Furioso_4[1080p].part04.rar
    http://filepost.com/files/e83d4a52/Rapido_&_Furioso_4[1080p].part05.rar
    http://filepost.com/files/mc98ame4/Rapido_&_Furioso_4[1080p].part06.rar
    http://filepost.com/files/e82be1c6/Rapido_&_Furioso_4[1080p].part07.rar
    http://filepost.com/files/b1312am2/Rapido_&_Furioso_4[1080p].part08.rar
    http://filepost.com/files/f4543m32/Rapido_&_Furioso_4[1080p].part09.rar
    http://filepost.com/files/4749bb9a/Rapido_&_Furioso_4[1080p].part10.rar[/HIDE]


    Predators



    Tamaño de la película : 4. GB

    Video

    Formato : AVC - M2TS
    Duración : 1h 46min.
    Tasa de bits : 4 631Kbps
    Ancho : 1 920pixeles
    Alto : 1 080pixeles
    Relación de aspecto : 16:9
    Velocidad de cuadro : 23,976fps
    Tamaño de pista : 3,51GIB (88%)

    Audio

    Formato : AC-3
    Duración : 1h 46min.
    Tasa de bits : 448Kbps
    Canal(es) : 6canales
    Tamaño de pista : 342MB (8%)
    Idioma : Español Latino

    Links

    [HIDE]
    http://www.fileserve.com/file/N3Q2ZxU
    http://www.fileserve.com/file/8s6ZrUE
    http://www.fileserve.com/file/5UDYbEB
    http://www.fileserve.com/file/PQgTbBQ
    http://www.fileserve.com/file/8W6gcH2
    http://www.fileserve.com/file/R6XfnTE
    http://www.fileserve.com/file/XHjsBm5
    http://www.fileserve.com/file/WSQ6QF7
    http://www.fileserve.com/file/Bxun2VD
    http://www.fileserve.com/file/GG3nun7
    http://www.fileserve.com/file/5skq9TN
    http://www.fileserve.com/file/kgaSmc3
    http://www.fileserve.com/file/dDeZPcH
    [/HIDE]



    Death Race 2



    Tamaño de la película : 4. GB

    Video

    Formato : AVC - M2TS
    Duración : 1h 40min.
    Tasa de bits : 5 000Kbps
    Ancho : 1 920pixeles
    Alto : 1 080pixeles
    Relación de aspecto : 16:9
    Velocidad de cuadro : 23,976fps
    Tamaño de pista : 3,56GIB (89%)

    Audio

    Formato : AC-3
    Duración : 1h 40min.
    Tasa de bits : 384Kbps
    Canal(es) : 6canales
    Tamaño de pista : 276MB (7%)
    Idioma : Español Latino

    Links

    [HIDE]
    http://www.fileserve.com/file/KmEMSCw
    http://www.fileserve.com/file/6R6y9TH
    http://www.fileserve.com/file/cjcrDfH
    http://www.fileserve.com/file/mqNmXWS
    http://www.fileserve.com/file/X7rQ2yP
    http://www.fileserve.com/file/zGKvvF6
    http://www.fileserve.com/file/bWMJahP
    http://www.fileserve.com/file/zEg52VJ
    http://www.fileserve.com/file/5UKrZTN
    http://www.fileserve.com/file/7kvBXbB
    http://www.fileserve.com/file/2txbhn2
    http://www.fileserve.com/file/7mesVVA
    [/HIDE]



    Unstoppable



    Tamaño de la película : 4. GB

    Video

    Formato : AVC -M2TS
    Duración : 1h 38min.
    Tasa de bits : 5 055Kbps
    Ancho : 1 920pixeles
    Alto : 1 080pixeles
    Relación de aspecto : 16:9
    Velocidad de cuadro : 23,976fps
    Tamaño de pista : 3,52GIB (88%)

    Audio

    Formato : AC-3
    Duración : 1h 38min.
    Tasa de bits : 448Kbps
    Canal(es) : 6canales
    Tamaño de pista : 316MB (8%)
    Idioma : Español Latino

    Links

    [HIDE]
    http://www.fileserve.com/file/nxXJ26K
    http://www.fileserve.com/file/U6PRjwR
    http://www.fileserve.com/file/74rzbZz
    http://www.fileserve.com/file/fgsbsE6
    http://www.fileserve.com/file/Zk2wT8J
    http://www.fileserve.com/file/MPZv7sd
    http://www.fileserve.com/file/tdCc49W
    http://www.fileserve.com/file/g8xm44A
    http://www.fileserve.com/file/8aGwHYE
    http://www.fileserve.com/file/FXFArcv
    http://www.fileserve.com/file/q4ztzsQ
    [/HIDE]


    Avatar (Versión extendida)



    Tamaño de la película : 7.5 GB

    Video

    Formato : AVC
    Duración : 2h 58min.
    Tasa de bits : 5 314Kbps
    Ancho : 1 920pixeles
    Alto : 1 080pixeles
    Relación de aspecto : 16:9
    Velocidad de cuadro : 23,976fps
    Tamaño de pista : 6,72GIB (90%)

    Audio

    Formato : AC-3
    Duración : 2h 58min.
    Tasa de bits : 384Kbps
    Canal(es) : 6canales
    Tamaño de pista : 489MB (6%)
    Idioma : Español Latino

    Links

    [HIDE]
    http://www.fileserve.com/file/spRj3yR
    http://www.fileserve.com/file/vRECBkn
    http://www.fileserve.com/file/rmS9FKw
    http://www.fileserve.com/file/9jGmq9z
    http://www.fileserve.com/file/BQtxRtz
    http://www.fileserve.com/file/qezuUR5
    http://www.fileserve.com/file/YCC7hMw
    http://www.fileserve.com/file/jCFfNbV
    http://www.fileserve.com/file/VXKJfup
    http://www.fileserve.com/file/FSx9kXS
    http://www.fileserve.com/file/g3NnGSy
    http://www.fileserve.com/file/8PAxdpR
    http://www.fileserve.com/file/ZMmJWvH
    http://www.fileserve.com/file/eBW4Unw
    http://www.fileserve.com/file/PWCXJTg
    http://www.fileserve.com/file/vrG8ax5
    http://www.fileserve.com/file/6Nr97bg
    http://www.fileserve.com/file/a3JaXKx
    http://www.fileserve.com/file/JeK84ZM
    http://www.fileserve.com/file/VPHxS7H
    http://www.fileserve.com/file/d8RNNJH
    http://www.fileserve.com/file/gUN9Bmu
    [/HIDE]


    60 Segundos



    Tamaño de la película : 4. GB

    Video

    Formato : AVC
    Duración : 1h 57min.
    Tasa de bits : 4 139Kbps
    Ancho : 1 920pixeles
    Alto : 1 080pixeles
    Relación de aspecto : 16:9
    Velocidad de cuadro : 23,976fps
    Tamaño de pista : 3,45GIB (87%)

    Audio

    Formato : AC-3
    Tasa de bits : 448Kbps
    Canal(es) : 6canales
    Tamaño de pista : 364MB (9%)
    Idioma : Español Latino

    Links

    [HIDE]
    http://www.fileserve.com/file/4aEWHNr
    http://www.fileserve.com/file/3Cu4QK3
    http://www.fileserve.com/file/9pwCUEb
    http://www.fileserve.com/file/VM3YktS
    http://www.fileserve.com/file/D8TF3Jr
    http://www.fileserve.com/file/DAZvwKx
    http://www.fileserve.com/file/MNgdeYf
    http://www.fileserve.com/file/eksEMCk
    http://www.fileserve.com/file/dfbZdZA
    http://www.fileserve.com/file/qTV3paZ
    [/HIDE]



    300



    Tamaño de la película : 4. GB

    Video

    Formato : AVC - M2TS
    Duración : 1h 56min.
    Tasa de bits : 3 961Kbps
    Ancho : 1 920pixeles
    Alto : 1 080pixeles
    Relación de aspecto : 16:9
    Velocidad de cuadro : 23,976fps
    Tamaño de pista : 3,28GIB (86%)

    Audio

    Formato : AC-3
    Duración : 1h 56min.
    Tasa de bits : 448Kbps
    Canal(es) : 6canales
    Tamaño de pista : 374MB (10%)
    Idioma : Español Latino

    Links

    [HIDE]
    http://www.fileserve.com/file/ArsnrHx
    http://www.fileserve.com/file/MCsAjmF
    http://www.fileserve.com/file/e6dqjNx
    http://www.fileserve.com/file/F28XeWD
    http://www.fileserve.com/file/bmNEGsZ
    http://www.fileserve.com/file/vu7y5m6
    http://www.fileserve.com/file/5xCdd5k
    http://www.fileserve.com/file/cCJv8nf
    http://www.fileserve.com/file/zbfYvVD
    http://www.fileserve.com/file/FKyzZtG
    [/HIDE]





    Iron Man 2



    File size : 4 GB

    Video

    Format : AVC - M2TS
    Duration : 2h 4mn
    Bit rate : 3657 Kbps
    Resolucion : 1920 x 1080 pixelss
    Display aspect ratio : 16:9
    Frame rate : 23.976 fps
    Stream size : 3.24 GiB (86%)

    Audio

    Format : AC-3
    Bit rate : 448 Kbps
    Channel(s) : 5.1 channels
    Sampling rate : 48.0 KHz
    Stream size : 399 MiB (10%)
    Language : Español Latino

    Links

    [HIDE]
    http://www.fileserve.com/file/mUF74N9
    http://www.fileserve.com/file/pbG7kPg
    http://www.fileserve.com/file/2SBFbT6
    http://www.fileserve.com/file/vfdyfn4
    http://www.fileserve.com/file/rQzpCRc
    http://www.fileserve.com/file/pNRfAFD
    http://www.fileserve.com/file/QWKTAdb
    http://www.fileserve.com/file/TWUwqCy
    http://www.fileserve.com/file/yUdvdHd
    http://www.fileserve.com/file/YmvS5p8
    [/HIDE]


    Wanted



    Tamaño de la película : 4. GB

    Video

    Formato : AVC - M2TS
    Duración : 1h 50min.
    Tasa de bits : 4 235Kbps
    Ancho : 1 920pixeles
    Alto : 1 080pixeles
    Relación de aspecto : 16:9
    Velocidad de cuadro : 23,976fps
    Tamaño de pista : 3,30GIB (87%)

    Audio

    Formato : AC-3
    Duración : 1h 50min.
    Tasa de bits : 448Kbps
    Canal(es) : 6canales
    Tamaño de pista : 353MB (9%)
    Idioma : Español Latino

    Links

    [HIDE]
    http://www.fileserve.com/file/FXYtNTY
    http://www.fileserve.com/file/4g9AqS6
    http://www.fileserve.com/file/3DDVC38
    http://www.fileserve.com/file/Es236p4
    http://www.fileserve.com/file/9Yn2A74
    http://www.fileserve.com/file/eAGrsEU
    http://www.fileserve.com/file/up9BTFe
    http://www.fileserve.com/file/ETYyqsk
    http://www.fileserve.com/file/w6kSzZH
    http://www.fileserve.com/file/KtHpe7w
    [/HIDE]



    Furia De Titanes



    Tamaño de la película : 4. GB

    Video

    Formato : AVC - M2TS
    Duración : 1h 44min.
    Tasa de bits : 4 741Kbps
    Ancho : 1 920pixeles
    Alto : 1 080pixeles
    Relación de aspecto : 16:9
    Velocidad de cuadro : 23,976fps
    Tamaño de pista : 3,50GIB (88%)

    Audio

    Formato : AC-3
    Duración : 1h 44min.
    Tasa de bits : 448Kbps
    Canal(es) : 6canales
    Tamaño de pista : 334MB (8%)
    Idioma : Español Latino

    Links

    [HIDE]
    http://www.fileserve.com/file/yAd57sM
    http://www.fileserve.com/file/G2sQheG
    http://www.fileserve.com/file/pfwauQV
    http://www.fileserve.com/file/NFZyGgn
    http://www.fileserve.com/file/HpWrNKc
    http://www.fileserve.com/file/UfmzbxX
    http://www.fileserve.com/file/GeyewJt
    http://www.fileserve.com/file/DH978Qx
    http://www.fileserve.com/file/7q6csHZ
    http://www.fileserve.com/file/37vBQv4
    http://www.fileserve.com/file/3askh3e

    [/HIDE]



    Kick Ass



    File size : 4. GB

    Video

    Format : AVC - M2TS
    Duration : 1h 57mn
    Bit rate : 4142 Kbps
    Width : 1920 x 1080 pixels
    Display aspect ratio : 16:9
    Frame rate : 23.976 fps
    Stream size : 3.46 GiB (87%)

    Audio

    Format : AC-3
    Bit rate : 448 Kbps
    Channel(s) : 6 channels
    Stream size : 377 MiB (9%)
    Language : Español Latino

    Links

    [HIDE]
    http://www.fileserve.com/file/XcG4rzf
    http://www.fileserve.com/file/Zk6bKzK
    http://www.fileserve.com/file/R2Z7XDR
    http://www.fileserve.com/file/8tCZdmv
    http://www.fileserve.com/file/ArU7rXV
    http://www.fileserve.com/file/RNzsRQp
    http://www.fileserve.com/file/RffbU7G
    http://www.fileserve.com/file/wxBpeCY
    http://www.fileserve.com/file/R83XyRZ
    http://www.fileserve.com/file/CGbKrH9
    [/HIDE]


    Volver al futuro trilogia



    Titulo Original: Back to the future

    Tamaño: 4GB Por pelicula
    Duracion: 110 Minutos aproximadamente / cada Pelicula

    Video

    Formato : AVC - M2TS
    Tasa de bits : 4382Kbps
    Ancho : 1920pixeles
    Alto : 1080pixeles
    Relación de aspecto : 16:9
    Velocidad de cuadro : 23,976fps
    Tamaño de pista : 3,34GIB (87%)

    Audio

    Formato : AC-3
    Tasa de bits : 640Kbps
    Canal(es) : 6canales
    Tamaño de pista : 490MB (9%)
    Idioma : Español Latino

    Links

    Back To The Future 1

    [HIDE]
    http://www.fileserve.com/file/k464RMb
    http://www.fileserve.com/file/7CFyggK
    http://www.fileserve.com/file/2E4Bx6G
    http://www.fileserve.com/file/YG2FagV
    http://www.fileserve.com/file/W7cGq68
    http://www.fileserve.com/file/xstDSUx
    http://www.fileserve.com/file/7kVHQmT
    http://www.fileserve.com/file/RhjyNfn
    http://www.fileserve.com/file/CeRBmfe
    http://www.fileserve.com/file/4jaSq3T
    http://www.fileserve.com/file/wd2dG4q
    [/HIDE]

    Back To The Future 2

    [HIDE]
    http://www.fileserve.com/file/GqxFb9q
    http://www.fileserve.com/file/SpAsAHf
    http://www.fileserve.com/file/McQuRgQ
    http://www.fileserve.com/file/Pum4W4n
    http://www.fileserve.com/file/sJUvGhJ
    http://www.fileserve.com/file/Pk6TTjJ
    http://www.fileserve.com/file/sTMBuvm
    http://www.fileserve.com/file/7cVjBHH
    http://www.fileserve.com/file/e4ECSte
    http://www.fileserve.com/file/UVbAFyY
    http://www.fileserve.com/file/2txwCyE

    [/HIDE]

    Back To The Future 3
    [HIDE]
    http://www.fileserve.com/file/vdneRjF
    http://www.fileserve.com/file/Vh9QHAk
    http://www.fileserve.com/file/pwznvtb
    http://www.fileserve.com/file/G2XZVHC
    http://www.fileserve.com/file/Wv2Rmyv
    http://www.fileserve.com/file/2rDrwdq
    http://www.fileserve.com/file/TCG7bjf
    http://www.fileserve.com/file/jApBPrC
    http://www.fileserve.com/file/8xqFeTE
    http://www.fileserve.com/file/wZTpFWx
    http://www.fileserve.com/file/qHWW9Aa
    [/HIDE]



    2012



    Tamaño de la película : 4. GB

    Video

    Formato : AVC
    Duración : 2h 37min.
    Tasa de bits : 3 008Kbps
    Ancho : 1 920pixeles
    Alto : 1 080pixeles
    Relación de aspecto : 16:9
    Velocidad de cuadro : 23,976fps
    Tamaño de pista : 3,38GIB (84%)

    Audio

    Formato : AC-3
    Duración : 2h 37min.
    Tasa de bits : 448Kbps
    Canal(es) : 6canaless
    Tamaño de pista : 504MB (12%)
    Idioma : Español Latino

    Links

    [HIDE]
    http://www.fileserve.com/file/nb54EeF
    http://www.fileserve.com/file/Y9D9wyC
    http://www.fileserve.com/file/Evfcsht
    http://www.fileserve.com/file/9YyaqJB
    http://www.fileserve.com/file/VzBv2Kk
    http://www.fileserve.com/file/7reD3BE
    http://www.fileserve.com/file/3uHtyVF
    http://www.fileserve.com/file/tpc2vB3
    http://www.fileserve.com/file/w2BQddk
    http://www.fileserve.com/file/7qJ2qqX
    http://www.fileserve.com/file/NSK7Mzp
    [/HIDE]


    127 Horas



    Tamaño de la película : 4. GB

    Video

    Formato : AVC
    Duración : 1h 33min.
    Tasa de bits : 5 524Kbps
    Ancho : 1 920pixeles
    Alto : 1 080pixeles
    Relación de aspecto : 16:9
    Velocidad de cuadro : 23,976fps
    Tamaño de pista : 3,65GIB (92%)

    Audio

    Formato : AC-3
    Tasa de bits : 256Kbps
    Canal(es) : 2canales
    Tamaño de pista : 172MB (4%)
    Idioma : Español Latíno

    Links

    [HIDE]
    http://www.fileserve.com/file/cjq7qra
    http://www.fileserve.com/file/HM38jPq
    http://www.fileserve.com/file/bg9GBjF
    http://www.fileserve.com/file/B9vxmZK
    http://www.fileserve.com/file/Ua8HzX2
    http://www.fileserve.com/file/uRrH6yp
    http://www.fileserve.com/file/7txvPmy
    http://www.fileserve.com/file/8yfEgQc
    http://www.fileserve.com/file/zxJFMw8
    http://www.fileserve.com/file/pytEbXF
    http://www.fileserve.com/file/54ypkjT
    [/HIDE]


    Harry Potter y las Reliquias de la Muerte



    Tamaño de la película : 4 GB

    Video

    Formato : AVC
    Duración : 2h 26min.
    Tasa de bits : 3 500Kbps
    Ancho : 1 920pixeles
    Alto : 1 080pixeles
    Relación de aspecto : 16:9
    Velocidad de cuadro : 23,976fps
    Tamaño de pista : 3,65GIB (87%)

    Audio

    Formato : AC-3
    Duración : 2h 26min.
    Tasa de bits : 384Kbps
    Canal(es) : 6canales
    Posiciones del canal : Front: L C R, Side: L R, LFE
    Tamaño de pista : 401MB (9%)

    Links

    [HIDE]
    http://www.fileserve.com/file/7ZbfsQD
    http://www.fileserve.com/file/zHMdSmJ
    http://www.fileserve.com/file/9Q5XvAN
    http://www.fileserve.com/file/eYHnyNg
    http://www.fileserve.com/file/dxVh9PM
    http://www.fileserve.com/file/t85wdhy
    http://www.fileserve.com/file/FzYk5MM
    http://www.fileserve.com/file/YZFcrC4
    http://www.fileserve.com/file/ewhCemw
    http://www.fileserve.com/file/rjPwUnH
    http://www.fileserve.com/file/RV2bQvc
    [/HIDE]


    Sherlock Holmes



    Tamaño de la película : 4. GB

    Video

    Format : AVC
    Duration : 2h 8mn
    Bit rate : 4 011 Kbps
    Width : 1 920 pixels
    Height : 1 080 pixels
    Display aspect ratio : 16:9
    Frame rate : 23.976 fps
    Stream size : 3.67 GiB (88%)

    Audio

    Format : AC-3
    Duration : 2h 8mn
    Bit rate : 384 Kbps
    Channel(s) : 6 channels
    Channel positions : Front: L C R, Side: L R, LFE
    Stream size : 353 MiB (8%)
    Language : Latino

    Links

    [HIDE]
    http://www.fileserve.com/file/vf4bcQs
    http://www.fileserve.com/file/ucmDEaJ
    http://www.fileserve.com/file/vbCDRU3
    http://www.fileserve.com/file/U44jrRM
    http://www.fileserve.com/file/BEyNFdN
    http://www.fileserve.com/file/nPeQ4UF
    http://www.fileserve.com/file/PQXYVyu
    http://www.fileserve.com/file/6wEXBEB
    http://www.fileserve.com/file/J5kzBuW
    http://www.fileserve.com/file/4AaMDzr
    http://www.fileserve.com/file/9YhH6pu
    [/HIDE]


    El día que la tierra se detuvo



    Tamaño de la película : 4. GB

    Video

    Formato : AVC
    Duración : 1h 43min.
    Tasa de bits : 4 550Kbps
    Ancho : 1 920pixeles
    Alto : 1 080pixeles
    Relación de aspecto : 16:9
    Velocidad de cuadro : 23,976fps
    Tamaño de pista : 3,34GIB (87%)

    Audio

    Formato : AC-3
    Duración : 1h 43min.
    Tasa de bits : 448Kbps
    Canal(es) : 6canales
    Tamaño de pista : 332MB (8%)
    Idioma : Español Latino

    Links

    [HIDE]
    http://www.fileserve.com/file/ZUnhjGM
    http://www.fileserve.com/file/fpR7AN6
    http://www.fileserve.com/file/jKcwgGx
    http://www.fileserve.com/file/wVU2vF5
    http://www.fileserve.com/file/mCkQQ6z
    http://www.fileserve.com/file/xEUjXkR
    http://www.fileserve.com/file/Q8f5tDk
    http://www.fileserve.com/file/x6jssMa
    http://www.fileserve.com/file/YGmFr6m
    http://www.fileserve.com/file/MuMd3K9
    [/HIDE]


    El Aprendiz De Brujo



    File size : 4. GB

    Video

    Format : AVC - M2TS
    Duration : 1h 49mn
    Bit rate : 4578 Kbps
    Width : 1920 x 1080 pixels
    Display aspect ratio : 16:9
    Frame rate : 23.976 fps
    Stream size : 3.54 GiB (87%)

    Audio

    Format : AC-3
    Bit rate : 448 Kbps
    Channel(s) : 6 channels
    Stream size : 349 MiB (8%)
    Language : Español Latino

    Links

    [HIDE]
    http://www.fileserve.com/file/abNbJ7b
    http://www.fileserve.com/file/dWVKSfh
    http://www.fileserve.com/file/eNQjnV5
    http://www.fileserve.com/file/4ESYuvk
    http://www.fileserve.com/file/YDZeRAu
    http://www.fileserve.com/file/SKnPT9B
    http://www.fileserve.com/file/aT4j3NB
    http://www.fileserve.com/file/au4W9x2
    http://www.fileserve.com/file/eQUuWm4
    http://www.fileserve.com/file/Q8nbNfh

    [/HIDE]


    Guerra de los Mundos



    Tamaño de la película : 4. GB

    Video

    Formato : AVC
    Duración : 1h 56min.
    Tasa de bits : 3 965Kbps
    Ancho : 1 920pixeles
    Alto : 1 080pixeles
    Relación de aspecto : 16:9
    Velocidad de cuadro : 23,976fps
    Tamaño de pista : 3,29GIB (88%)

    Audio

    Formato : AC-3
    Duración : 1h 56min.
    Tasa de bits : 384Kbps
    Canal(es) : 2canales
    Tamaño de pista : 320MB (8%)
    Idioma : Español Latino

    Links

    [HIDE]
    http://www.fileserve.com/file/7mkW3Pa
    http://www.fileserve.com/file/s6fe4yR
    http://www.fileserve.com/file/kp6Su4k
    http://www.fileserve.com/file/fzhdZN9
    http://www.fileserve.com/file/KkueqTq
    http://www.fileserve.com/file/YqJDzFU
    http://www.fileserve.com/file/Pkuf6KC
    http://www.fileserve.com/file/xMpmwKm
    http://www.fileserve.com/file/5bh8kxH
    http://www.fileserve.com/file/UuCnk2k

    [/HIDE]


    Los Sustitutos



    Tamaño de la película : 4 GB

    Video

    Format : AVC
    Duration : 1h 28mn
    Bit rate : 5 724 Kbps
    Width : 1 920 pixels
    Height : 1 080 pixels
    Display aspect ratio : 16:9
    Frame rate : 23.976 fps
    Stream size : 3.59 GiB (90%)

    Audio

    Format : AC-3
    Duration : 1h 28mn
    Bit rate : 384 Kbps
    Channel(s) : 6 channels
    Stream size : 243 MiB (6%)

    Links
    [HIDE]
    http://www.***************/?d=OHAJ9IEW
    http://www.***************/?d=ZOO8VAE0
    http://www.***************/?d=FDFGYIU2
    http://www.***************/?d=ULDTIBWY
    http://www.***************/?d=PPTXP0Q0
    http://www.***************/?d=6F3U4O1S
    http://www.***************/?d=881VQ6NM
    http://www.***************/?d=MNGNBLBN
    http://www.***************/?d=2SCYWJNU
    http://www.***************/?d=96JCE626
    http://www.***************/?d=VQNENYIP
    [/HIDE]


    Drive Angry



    Tamaño de la película : 4. GB

    Video

    Format : AVC
    Duration : 1h 44mn
    Bit rate : 4 735 Kbps
    Width : 1 920 pixels
    Height : 1 080 pixels
    Display aspect ratio : 16:9
    Frame rate : 23.976 fps
    Stream size : 3.50 GiB (88%)

    Audio

    Format : AC-3
    Duration : 1h 44mn
    Bit rate : 448 Kbps
    Channel(s) : 6 channels
    Channel positions : Front: L C R, Side: L R, LFE
    Sampling rate : 48.0 KHz
    Stream size : 335 MiB (8%)

    Links

    [HIDE]
    http://www.fileserve.com/file/eHpqVu5
    http://www.fileserve.com/file/3bHBQsy
    http://www.fileserve.com/file/SseZ33P
    http://www.fileserve.com/file/WJfaGsJ
    http://www.fileserve.com/file/2Bvag9W
    http://www.fileserve.com/file/J9UH3jU
    http://www.fileserve.com/file/VynYgSK
    http://www.fileserve.com/file/SgCSTsD
    http://www.fileserve.com/file/7rJQxwC
    http://www.fileserve.com/file/mjkV8Cn
    http://www.fileserve.com/file/sYmYhnv
    [/HIDE]



    El Avispón Verde



    Tamaño de la película : 4. GB

    Video

    Format : AVC
    Duration : 1h 58mn
    Bit rate : 4 100 Kbps
    Width : 1 920 pixels
    Height : 1 080 pixels
    Display aspect ratio : 16:9
    Frame rate : 23.976 fps
    Stream size : 3.46 GiB (87%)

    Audio

    Format : AC-3
    Duration : 1h 58mn
    Bit rate : 448 Kbps
    Channel(s) : 6 channels
    Stream size : 381 MiB (9%)
    Language : Latino

    Links

    [HIDE]
    http://www.fileserve.com/file/M8gQJHY
    http://www.fileserve.com/file/W7exg45
    http://www.fileserve.com/file/vVHb6Nw
    http://www.fileserve.com/file/8rPSmm5
    http://www.fileserve.com/file/5J7vYDf
    http://www.fileserve.com/file/7cHQbfY
    http://www.fileserve.com/file/FJAXEHu
    http://www.fileserve.com/file/qgDbhUM
    http://www.fileserve.com/file/qzk4ucN
    http://www.fileserve.com/file/6jMjrkE
    http://www.fileserve.com/file/YvDaprr

    [/HIDE]


    Tron Legacy



    Tamaño de la película : 4. GB

    Video

    Formato : AVC
    Duración : 2h 5min.
    Tasa de bits : 3 919Kbps
    Ancho : 1 920pixeles
    Alto : 1 080pixeles
    Relación de aspecto : 16:9
    Velocidad de cuadro : 23,976fps
    Tamaño de pista : 3,49GIB (87%)

    Audio

    Formato : AC-3
    Duración : 2h 5min.
    Tasa de bits : 384Kbps
    Canal(es) : 6canales
    Tamaño de pista : 343MB (8%)
    Idioma : Latino

    Links

    [HIDE]
    http://www.fileserve.com/file/N2XQgby
    http://www.fileserve.com/file/4haFHNw
    http://www.fileserve.com/file/ubGVBs2
    http://www.fileserve.com/file/h6xyzsT
    http://www.fileserve.com/file/JWd7GSb
    http://www.fileserve.com/file/jak6zAS
    http://www.fileserve.com/file/cW7dg9E
    http://www.fileserve.com/file/ExkHHPx
    http://www.fileserve.com/file/8ww46WU
    http://www.fileserve.com/file/n2VqRA2
    http://www.fileserve.com/file/xbNC68t
    [/HIDE]





    Superbad



    Tamaño de la película : 4. GB

    Video

    Formato : AVC -M2TS
    Duración : 1h 58min.
    Tasa de bits : 4 109Kbps
    Ancho : 1 920pixeles
    Alto : 1 080pixeles
    Relación de aspecto : 16:9
    Velocidad de cuadro : 23,976fps
    Tamaño de pista : 3,46GIB (87%)

    Audio

    Formato : AC-3
    Duración : 1h 58min.
    Tasa de bits : 448Kbps
    Canal(es) : 6canales
    Tamaño de pista : 380MB (9%)
    Idioma : Español Latino

    Links

    [HIDE]
    http://www.fileserve.com/file/HCCQFMK
    http://www.fileserve.com/file/YjkJGHz
    http://www.fileserve.com/file/z7DjpFW
    http://www.fileserve.com/file/ydWNAvk
    http://www.fileserve.com/file/XAeZcKc
    http://www.fileserve.com/file/bUw4xwJ
    http://www.fileserve.com/file/deqzcgM
    http://www.fileserve.com/file/Bbg78SD
    http://www.fileserve.com/file/dM3UNJP
    http://www.fileserve.com/file/dVwRVr2
    http://www.fileserve.com/file/2qFzxKs
    http://www.fileserve.com/file/XkmM4Zv

    [/HIDE]
    Última edición por ubuntu2008; 09/12/2011 a las 16:10

  2. #2
    Mini User
    Fecha de ingreso
    05 may, 11
    Mensajes
    8
    Poder de reputación
    0
    Re: Megapost Películas Full HD 1080p Audio Latino [FS] 4GB
    mmmm estasn muy bien pero cual es el passsssssssssssssssssssssssssssssssssssss!!!!

  3. #3
    Mini User
    Fecha de ingreso
    08 jul, 11
    Mensajes
    1
    Poder de reputación
    0
    Re: Megapost Películas Full HD 1080p Audio Latino [FS] 4GB
    cual es laa pas??!!

  4. #4
    Mini User
    Fecha de ingreso
    10 jul, 11
    Mensajes
    2
    Poder de reputación
    0
    Re: Megapost Películas Full HD 1080p Audio Latino [FS] 4GB
    cual es la contraseña o es un chiste

  5. #5
    Mini User Avatar de EKSHIG
    Fecha de ingreso
    17 dic, 09
    Mensajes
    15
    Poder de reputación
    0
    Re: Megapost Películas Full HD 1080p Audio Latino [FS] 4GB
    brother muy bueno el post pero la contraseña ???? la mandas al correo o k

  6. #6
    Dw Gold
    Fecha de ingreso
    03 mar, 08
    Mensajes
    805
    Poder de reputación
    57
    Re: Megapost Películas Full HD 1080p Audio Latino [FS] 4GB
    y el pas por favor

  7. #7
    Dw Gold
    Fecha de ingreso
    03 mar, 08
    Mensajes
    805
    Poder de reputación
    57
    Re: Megapost Películas Full HD 1080p Audio Latino [FS] 4GB
    poe que no lo pones que pasa

  8. #8
    Usuario Dw Avatar de ubuntu2008
    Fecha de ingreso
    28 feb, 11
    Mensajes
    52
    Poder de reputación
    15
    Re: Megapost Películas Full HD 1080p Audio Latino [FS] 4GB
    Contraseña para todas las peliculas: www.Gojula.net

  9. #9
    Mini User
    Fecha de ingreso
    01 mar, 12
    Mensajes
    2
    Poder de reputación
    0
    Re: Megapost Películas Full HD 1080p Audio Latino [FS] 4GB
    Hola, gracias por los aportes.....y si podrías resubir el link 7 de volver al futuro 2, sería muy bueno..abrazo

  10. #10
    Mini User
    Fecha de ingreso
    28 abr, 12
    Mensajes
    1
    Poder de reputación
    0
    Re: Megapost Películas Full HD 1080p Audio Latino [FS] 4GB
    Todos los links caidos u.u queria la de el dia que la tierra se detuvo

Temas similares

  1. Pink [ Music Video VOB Collection ] & HD
    Por jesuars en el foro Videos y Conciertos Musicales
    Respuestas: 0
    Último mensaje: 21/04/2011, 23:06
  2. Xilisoft Audio Converter 6.0.3.0609 Portable
    Por gocpho88 en el foro Portable
    Respuestas: 0
    Último mensaje: 31/12/2010, 14:20
  3. Captain Audio - Click, Beep & Zing (Sounds for Your Computer)
    Por Dj$oda en el foro Librerias, Samples & fx
    Respuestas: 5
    Último mensaje: 07/02/2010, 11:47
  4. Captain Audio - DJ FX (The Audio Toolkit for DJs)
    Por Dj$oda en el foro Librerias, Samples & fx
    Respuestas: 15
    Último mensaje: 06/12/2009, 12:38

Etiquetas para este tema

Permisos de Publicación

  • No puedes crear nuevos temas
  • No puedes responder temas
  • No puedes subir archivos adjuntos
  • No puedes editar tus mensajes
  •