Resultados 1 al 10 de 10
  1. #1
    Tímido Avatar de ubuntu2008
    Fecha de ingreso
    28 feb, 11
    Mensajes
    60
    Poder de reputación
    15
    Megapost Películas Full HD 1080p Audio Latino [FS] 4GB
    El Transportador 3



    Tamaño de la película : 4. GB

    Video

    Formato : AVC -M2TS
    Duración : 1h 43min.
    Tasa de bits : 5152Kbps
    Ancho : 1920pixeles
    Alto : 1080pixeles
    Relación de aspecto : 16:9
    Velocidad de cuadro : 23,976fps
    Tamaño de pista : 3,79GIB (88%)

    Audio

    Formato : AC-3
    Duración : 1h 43min.
    Tasa de bits : 448Kbps
    Canal(es) : 6canales
    Tamaño de pista : 333MB (8%)
    Idioma : Español Latino

    Links


    [Solo usuarios registrados a DowntWarez.Com puede ver los links. ] para poder ver lo que hay dentro :)


    Rapido & Furioso 4



    Tamaño de la película : 4 GB

    Video

    Formato : AVC
    Tasa de bits : 5017Kbps
    Ancho : 1920pixeles
    Alto : 1080pixeles
    Relación de aspecto : 16:9
    Velocidad de cuadro : 23,976fps
    Tamaño de pista : 3,53GIB (88%)

    Audio

    Formato : AC-3
    Duración : 1h 39min.
    Tasa de bits : 448Kbps
    Canal(es) : 6canales
    Tamaño de pista : 319MB (8%)
    Language : Español Latino

    Links


    [Solo usuarios registrados a DowntWarez.Com puede ver los links. ] para poder ver lo que hay dentro :)



    Predators



    Tamaño de la película : 4. GB

    Video

    Formato : AVC - M2TS
    Duración : 1h 46min.
    Tasa de bits : 4 631Kbps
    Ancho : 1 920pixeles
    Alto : 1 080pixeles
    Relación de aspecto : 16:9
    Velocidad de cuadro : 23,976fps
    Tamaño de pista : 3,51GIB (88%)

    Audio

    Formato : AC-3
    Duración : 1h 46min.
    Tasa de bits : 448Kbps
    Canal(es) : 6canales
    Tamaño de pista : 342MB (8%)
    Idioma : Español Latino

    Links

    Contenido Oculto, debes [Solo usuarios registrados a DowntWarez.Com puede ver los links. ] para poder ver lo que hay dentro :)




    Death Race 2



    Tamaño de la película : 4. GB

    Video

    Formato : AVC - M2TS
    Duración : 1h 40min.
    Tasa de bits : 5 000Kbps
    Ancho : 1 920pixeles
    Alto : 1 080pixeles
    Relación de aspecto : 16:9
    Velocidad de cuadro : 23,976fps
    Tamaño de pista : 3,56GIB (89%)

    Audio

    Formato : AC-3
    Duración : 1h 40min.
    Tasa de bits : 384Kbps
    Canal(es) : 6canales
    Tamaño de pista : 276MB (7%)
    Idioma : Español Latino

    Links

    Contenido Oculto, debes [Solo usuarios registrados a DowntWarez.Com puede ver los links. ] para poder ver lo que hay dentro :)




    Unstoppable



    Tamaño de la película : 4. GB

    Video

    Formato : AVC -M2TS
    Duración : 1h 38min.
    Tasa de bits : 5 055Kbps
    Ancho : 1 920pixeles
    Alto : 1 080pixeles
    Relación de aspecto : 16:9
    Velocidad de cuadro : 23,976fps
    Tamaño de pista : 3,52GIB (88%)

    Audio

    Formato : AC-3
    Duración : 1h 38min.
    Tasa de bits : 448Kbps
    Canal(es) : 6canales
    Tamaño de pista : 316MB (8%)
    Idioma : Español Latino

    Links

    Contenido Oculto, debes [Solo usuarios registrados a DowntWarez.Com puede ver los links. ] para poder ver lo que hay dentro :)



    Avatar (Versión extendida)



    Tamaño de la película : 7.5 GB

    Video

    Formato : AVC
    Duración : 2h 58min.
    Tasa de bits : 5 314Kbps
    Ancho : 1 920pixeles
    Alto : 1 080pixeles
    Relación de aspecto : 16:9
    Velocidad de cuadro : 23,976fps
    Tamaño de pista : 6,72GIB (90%)

    Audio

    Formato : AC-3
    Duración : 2h 58min.
    Tasa de bits : 384Kbps
    Canal(es) : 6canales
    Tamaño de pista : 489MB (6%)
    Idioma : Español Latino

    Links

    Contenido Oculto, debes [Solo usuarios registrados a DowntWarez.Com puede ver los links. ] para poder ver lo que hay dentro :)



    60 Segundos



    Tamaño de la película : 4. GB

    Video

    Formato : AVC
    Duración : 1h 57min.
    Tasa de bits : 4 139Kbps
    Ancho : 1 920pixeles
    Alto : 1 080pixeles
    Relación de aspecto : 16:9
    Velocidad de cuadro : 23,976fps
    Tamaño de pista : 3,45GIB (87%)

    Audio

    Formato : AC-3
    Tasa de bits : 448Kbps
    Canal(es) : 6canales
    Tamaño de pista : 364MB (9%)
    Idioma : Español Latino

    Links

    Contenido Oculto, debes [Solo usuarios registrados a DowntWarez.Com puede ver los links. ] para poder ver lo que hay dentro :)




    300



    Tamaño de la película : 4. GB

    Video

    Formato : AVC - M2TS
    Duración : 1h 56min.
    Tasa de bits : 3 961Kbps
    Ancho : 1 920pixeles
    Alto : 1 080pixeles
    Relación de aspecto : 16:9
    Velocidad de cuadro : 23,976fps
    Tamaño de pista : 3,28GIB (86%)

    Audio

    Formato : AC-3
    Duración : 1h 56min.
    Tasa de bits : 448Kbps
    Canal(es) : 6canales
    Tamaño de pista : 374MB (10%)
    Idioma : Español Latino

    Links

    Contenido Oculto, debes [Solo usuarios registrados a DowntWarez.Com puede ver los links. ] para poder ver lo que hay dentro :)






    Iron Man 2



    File size : 4 GB

    Video

    Format : AVC - M2TS
    Duration : 2h 4mn
    Bit rate : 3657 Kbps
    Resolucion : 1920 x 1080 pixelss
    Display aspect ratio : 16:9
    Frame rate : 23.976 fps
    Stream size : 3.24 GiB (86%)

    Audio

    Format : AC-3
    Bit rate : 448 Kbps
    Channel(s) : 5.1 channels
    Sampling rate : 48.0 KHz
    Stream size : 399 MiB (10%)
    Language : Español Latino

    Links

    Contenido Oculto, debes [Solo usuarios registrados a DowntWarez.Com puede ver los links. ] para poder ver lo que hay dentro :)



    Wanted



    Tamaño de la película : 4. GB

    Video

    Formato : AVC - M2TS
    Duración : 1h 50min.
    Tasa de bits : 4 235Kbps
    Ancho : 1 920pixeles
    Alto : 1 080pixeles
    Relación de aspecto : 16:9
    Velocidad de cuadro : 23,976fps
    Tamaño de pista : 3,30GIB (87%)

    Audio

    Formato : AC-3
    Duración : 1h 50min.
    Tasa de bits : 448Kbps
    Canal(es) : 6canales
    Tamaño de pista : 353MB (9%)
    Idioma : Español Latino

    Links

    Contenido Oculto, debes [Solo usuarios registrados a DowntWarez.Com puede ver los links. ] para poder ver lo que hay dentro :)




    Furia De Titanes



    Tamaño de la película : 4. GB

    Video

    Formato : AVC - M2TS
    Duración : 1h 44min.
    Tasa de bits : 4 741Kbps
    Ancho : 1 920pixeles
    Alto : 1 080pixeles
    Relación de aspecto : 16:9
    Velocidad de cuadro : 23,976fps
    Tamaño de pista : 3,50GIB (88%)

    Audio

    Formato : AC-3
    Duración : 1h 44min.
    Tasa de bits : 448Kbps
    Canal(es) : 6canales
    Tamaño de pista : 334MB (8%)
    Idioma : Español Latino

    Links

    Contenido Oculto, debes [Solo usuarios registrados a DowntWarez.Com puede ver los links. ] para poder ver lo que hay dentro :)




    Kick Ass



    File size : 4. GB

    Video

    Format : AVC - M2TS
    Duration : 1h 57mn
    Bit rate : 4142 Kbps
    Width : 1920 x 1080 pixels
    Display aspect ratio : 16:9
    Frame rate : 23.976 fps
    Stream size : 3.46 GiB (87%)

    Audio

    Format : AC-3
    Bit rate : 448 Kbps
    Channel(s) : 6 channels
    Stream size : 377 MiB (9%)
    Language : Español Latino

    Links

    Contenido Oculto, debes [Solo usuarios registrados a DowntWarez.Com puede ver los links. ] para poder ver lo que hay dentro :)



    Volver al futuro trilogia



    Titulo Original: Back to the future

    Tamaño: 4GB Por pelicula
    Duracion: 110 Minutos aproximadamente / cada Pelicula

    Video

    Formato : AVC - M2TS
    Tasa de bits : 4382Kbps
    Ancho : 1920pixeles
    Alto : 1080pixeles
    Relación de aspecto : 16:9
    Velocidad de cuadro : 23,976fps
    Tamaño de pista : 3,34GIB (87%)

    Audio

    Formato : AC-3
    Tasa de bits : 640Kbps
    Canal(es) : 6canales
    Tamaño de pista : 490MB (9%)
    Idioma : Español Latino

    Links

    Back To The Future 1

    Contenido Oculto, debes [Solo usuarios registrados a DowntWarez.Com puede ver los links. ] para poder ver lo que hay dentro :)


    Back To The Future 2

    Contenido Oculto, debes [Solo usuarios registrados a DowntWarez.Com puede ver los links. ] para poder ver lo que hay dentro :)


    Back To The Future 3
    Contenido Oculto, debes [Solo usuarios registrados a DowntWarez.Com puede ver los links. ] para poder ver lo que hay dentro :)




    2012



    Tamaño de la película : 4. GB

    Video

    Formato : AVC
    Duración : 2h 37min.
    Tasa de bits : 3 008Kbps
    Ancho : 1 920pixeles
    Alto : 1 080pixeles
    Relación de aspecto : 16:9
    Velocidad de cuadro : 23,976fps
    Tamaño de pista : 3,38GIB (84%)

    Audio

    Formato : AC-3
    Duración : 2h 37min.
    Tasa de bits : 448Kbps
    Canal(es) : 6canaless
    Tamaño de pista : 504MB (12%)
    Idioma : Español Latino

    Links

    Contenido Oculto, debes [Solo usuarios registrados a DowntWarez.Com puede ver los links. ] para poder ver lo que hay dentro :)



    127 Horas



    Tamaño de la película : 4. GB

    Video

    Formato : AVC
    Duración : 1h 33min.
    Tasa de bits : 5 524Kbps
    Ancho : 1 920pixeles
    Alto : 1 080pixeles
    Relación de aspecto : 16:9
    Velocidad de cuadro : 23,976fps
    Tamaño de pista : 3,65GIB (92%)

    Audio

    Formato : AC-3
    Tasa de bits : 256Kbps
    Canal(es) : 2canales
    Tamaño de pista : 172MB (4%)
    Idioma : Español Latíno

    Links

    Contenido Oculto, debes [Solo usuarios registrados a DowntWarez.Com puede ver los links. ] para poder ver lo que hay dentro :)



    Harry Potter y las Reliquias de la Muerte



    Tamaño de la película : 4 GB

    Video

    Formato : AVC
    Duración : 2h 26min.
    Tasa de bits : 3 500Kbps
    Ancho : 1 920pixeles
    Alto : 1 080pixeles
    Relación de aspecto : 16:9
    Velocidad de cuadro : 23,976fps
    Tamaño de pista : 3,65GIB (87%)

    Audio

    Formato : AC-3
    Duración : 2h 26min.
    Tasa de bits : 384Kbps
    Canal(es) : 6canales
    Posiciones del canal : Front: L C R, Side: L R, LFE
    Tamaño de pista : 401MB (9%)

    Links

    Contenido Oculto, debes [Solo usuarios registrados a DowntWarez.Com puede ver los links. ] para poder ver lo que hay dentro :)



    Sherlock Holmes



    Tamaño de la película : 4. GB

    Video

    Format : AVC
    Duration : 2h 8mn
    Bit rate : 4 011 Kbps
    Width : 1 920 pixels
    Height : 1 080 pixels
    Display aspect ratio : 16:9
    Frame rate : 23.976 fps
    Stream size : 3.67 GiB (88%)

    Audio

    Format : AC-3
    Duration : 2h 8mn
    Bit rate : 384 Kbps
    Channel(s) : 6 channels
    Channel positions : Front: L C R, Side: L R, LFE
    Stream size : 353 MiB (8%)
    Language : Latino

    Links

    Contenido Oculto, debes [Solo usuarios registrados a DowntWarez.Com puede ver los links. ] para poder ver lo que hay dentro :)



    El día que la tierra se detuvo



    Tamaño de la película : 4. GB

    Video

    Formato : AVC
    Duración : 1h 43min.
    Tasa de bits : 4 550Kbps
    Ancho : 1 920pixeles
    Alto : 1 080pixeles
    Relación de aspecto : 16:9
    Velocidad de cuadro : 23,976fps
    Tamaño de pista : 3,34GIB (87%)

    Audio

    Formato : AC-3
    Duración : 1h 43min.
    Tasa de bits : 448Kbps
    Canal(es) : 6canales
    Tamaño de pista : 332MB (8%)
    Idioma : Español Latino

    Links

    Contenido Oculto, debes [Solo usuarios registrados a DowntWarez.Com puede ver los links. ] para poder ver lo que hay dentro :)



    El Aprendiz De Brujo



    File size : 4. GB

    Video

    Format : AVC - M2TS
    Duration : 1h 49mn
    Bit rate : 4578 Kbps
    Width : 1920 x 1080 pixels
    Display aspect ratio : 16:9
    Frame rate : 23.976 fps
    Stream size : 3.54 GiB (87%)

    Audio

    Format : AC-3
    Bit rate : 448 Kbps
    Channel(s) : 6 channels
    Stream size : 349 MiB (8%)
    Language : Español Latino

    Links

    Contenido Oculto, debes [Solo usuarios registrados a DowntWarez.Com puede ver los links. ] para poder ver lo que hay dentro :)



    Guerra de los Mundos



    Tamaño de la película : 4. GB

    Video

    Formato : AVC
    Duración : 1h 56min.
    Tasa de bits : 3 965Kbps
    Ancho : 1 920pixeles
    Alto : 1 080pixeles
    Relación de aspecto : 16:9
    Velocidad de cuadro : 23,976fps
    Tamaño de pista : 3,29GIB (88%)

    Audio

    Formato : AC-3
    Duración : 1h 56min.
    Tasa de bits : 384Kbps
    Canal(es) : 2canales
    Tamaño de pista : 320MB (8%)
    Idioma : Español Latino

    Links

    Contenido Oculto, debes [Solo usuarios registrados a DowntWarez.Com puede ver los links. ] para poder ver lo que hay dentro :)



    Los Sustitutos



    Tamaño de la película : 4 GB

    Video

    Format : AVC
    Duration : 1h 28mn
    Bit rate : 5 724 Kbps
    Width : 1 920 pixels
    Height : 1 080 pixels
    Display aspect ratio : 16:9
    Frame rate : 23.976 fps
    Stream size : 3.59 GiB (90%)

    Audio

    Format : AC-3
    Duration : 1h 28mn
    Bit rate : 384 Kbps
    Channel(s) : 6 channels
    Stream size : 243 MiB (6%)

    Links
    Contenido Oculto, debes [Solo usuarios registrados a DowntWarez.Com puede ver los links. ] para poder ver lo que hay dentro :)



    Drive Angry



    Tamaño de la película : 4. GB

    Video

    Format : AVC
    Duration : 1h 44mn
    Bit rate : 4 735 Kbps
    Width : 1 920 pixels
    Height : 1 080 pixels
    Display aspect ratio : 16:9
    Frame rate : 23.976 fps
    Stream size : 3.50 GiB (88%)

    Audio

    Format : AC-3
    Duration : 1h 44mn
    Bit rate : 448 Kbps
    Channel(s) : 6 channels
    Channel positions : Front: L C R, Side: L R, LFE
    Sampling rate : 48.0 KHz
    Stream size : 335 MiB (8%)

    Links

    Contenido Oculto, debes [Solo usuarios registrados a DowntWarez.Com puede ver los links. ] para poder ver lo que hay dentro :)




    El Avispón Verde



    Tamaño de la película : 4. GB

    Video

    Format : AVC
    Duration : 1h 58mn
    Bit rate : 4 100 Kbps
    Width : 1 920 pixels
    Height : 1 080 pixels
    Display aspect ratio : 16:9
    Frame rate : 23.976 fps
    Stream size : 3.46 GiB (87%)

    Audio

    Format : AC-3
    Duration : 1h 58mn
    Bit rate : 448 Kbps
    Channel(s) : 6 channels
    Stream size : 381 MiB (9%)
    Language : Latino

    Links

    Contenido Oculto, debes [Solo usuarios registrados a DowntWarez.Com puede ver los links. ] para poder ver lo que hay dentro :)



    Tron Legacy



    Tamaño de la película : 4. GB

    Video

    Formato : AVC
    Duración : 2h 5min.
    Tasa de bits : 3 919Kbps
    Ancho : 1 920pixeles
    Alto : 1 080pixeles
    Relación de aspecto : 16:9
    Velocidad de cuadro : 23,976fps
    Tamaño de pista : 3,49GIB (87%)

    Audio

    Formato : AC-3
    Duración : 2h 5min.
    Tasa de bits : 384Kbps
    Canal(es) : 6canales
    Tamaño de pista : 343MB (8%)
    Idioma : Latino

    Links

    Contenido Oculto, debes [Solo usuarios registrados a DowntWarez.Com puede ver los links. ] para poder ver lo que hay dentro :)






    Superbad



    Tamaño de la película : 4. GB

    Video

    Formato : AVC -M2TS
    Duración : 1h 58min.
    Tasa de bits : 4 109Kbps
    Ancho : 1 920pixeles
    Alto : 1 080pixeles
    Relación de aspecto : 16:9
    Velocidad de cuadro : 23,976fps
    Tamaño de pista : 3,46GIB (87%)

    Audio

    Formato : AC-3
    Duración : 1h 58min.
    Tasa de bits : 448Kbps
    Canal(es) : 6canales
    Tamaño de pista : 380MB (9%)
    Idioma : Español Latino

    Links

    Contenido Oculto, debes [Solo usuarios registrados a DowntWarez.Com puede ver los links. ] para poder ver lo que hay dentro :)

    Última edición por ubuntu2008; 09/12/2011 a las 16:10

  • #2
    Mini User
    Fecha de ingreso
    05 may, 11
    Mensajes
    8
    Poder de reputación
    0
    Re: Megapost Películas Full HD 1080p Audio Latino [FS] 4GB
    mmmm estasn muy bien pero cual es el passsssssssssssssssssssssssssssssssssssss!!!!

  • #3
    Mini User
    Fecha de ingreso
    08 jul, 11
    Mensajes
    1
    Poder de reputación
    0
    Re: Megapost Películas Full HD 1080p Audio Latino [FS] 4GB
    cual es laa pas??!!

  • #4
    Mini User
    Fecha de ingreso
    10 jul, 11
    Mensajes
    2
    Poder de reputación
    0
    Re: Megapost Películas Full HD 1080p Audio Latino [FS] 4GB
    cual es la contraseña o es un chiste

  • #5
    Mini User Avatar de EKSHIG
    Fecha de ingreso
    17 dic, 09
    Mensajes
    15
    Poder de reputación
    0
    Re: Megapost Películas Full HD 1080p Audio Latino [FS] 4GB
    brother muy bueno el post pero la contraseña ???? la mandas al correo o k

  • #6
    Dw Gold
    Fecha de ingreso
    03 mar, 08
    Mensajes
    805
    Poder de reputación
    57
    Re: Megapost Películas Full HD 1080p Audio Latino [FS] 4GB
    y el pas por favor

  • #7
    Dw Gold
    Fecha de ingreso
    03 mar, 08
    Mensajes
    805
    Poder de reputación
    57
    Re: Megapost Películas Full HD 1080p Audio Latino [FS] 4GB
    poe que no lo pones que pasa

  • #8
    Tímido Avatar de ubuntu2008
    Fecha de ingreso
    28 feb, 11
    Mensajes
    60
    Poder de reputación
    15
    Re: Megapost Películas Full HD 1080p Audio Latino [FS] 4GB
    Contraseña para todas las peliculas: [Solo usuarios registrados a DowntWarez.Com puede ver los links. ]

  • #9
    Mini User
    Fecha de ingreso
    01 mar, 12
    Mensajes
    2
    Poder de reputación
    0
    Re: Megapost Películas Full HD 1080p Audio Latino [FS] 4GB
    Hola, gracias por los aportes.....y si podrías resubir el link 7 de volver al futuro 2, sería muy bueno..abrazo

  • #10
    Mini User
    Fecha de ingreso
    28 abr, 12
    Mensajes
    1
    Poder de reputación
    0
    Re: Megapost Películas Full HD 1080p Audio Latino [FS] 4GB
    Todos los links caidos u.u queria la de el dia que la tierra se detuvo

  • Temas similares

    1. Pink [ Music Video VOB Collection ] & HD
      Por jesuars en el foro Videos y Conciertos Musicales
      Respuestas: 0
      Último mensaje: 21/04/2011, 23:06
    2. Xilisoft Audio Converter 6.0.3.0609 Portable
      Por gocpho88 en el foro Portable
      Respuestas: 0
      Último mensaje: 31/12/2010, 14:20
    3. Captain Audio - Click, Beep & Zing (Sounds for Your Computer)
      Por Dj$oda en el foro Librerias, Samples & fx
      Respuestas: 5
      Último mensaje: 07/02/2010, 11:47
    4. Captain Audio - DJ FX (The Audio Toolkit for DJs)
      Por Dj$oda en el foro Librerias, Samples & fx
      Respuestas: 15
      Último mensaje: 06/12/2009, 12:38

    Etiquetas para este tema

    Permisos de Publicación

    • No puedes crear nuevos temas
    • No puedes responder temas
    • No puedes subir archivos adjuntos
    • No puedes editar tus mensajes
    •