Resultados 1 al 3 de 3
  1. #1
    Dw Supremo Avatar de cadagoto
    Fecha de ingreso
    14 abr, 11
    Mensajes
    2,374
    Poder de reputación
    106
    Descargar Avatar 2009 BluRay 1080p Mkv Audio Español Latino 5.1/Ingles(Dts) Subs Español 20 GB GRATIS





    -Avatar 2009 BluRay 1080p Mkv Audio Español Latino 5.1/Ingles(Dts) Subs Español











    -Título: Avatar
    Título original:Avatar
    País:USA
    Estreno en USA:18/12/2009
    Estreno en España:18/12/2009
    Lanzamiento en DVD (alquiler):21/04/2010
    Estreno en DVD (venta): 21/04/2010
    Estreno en Blu-ray: 21/04/2010
    Productora: Twentieth Century, Fox Film Corporation
    Director:James Cameron
    Guión: James Cameron
    Reparto: Sam Worthington, Zoe Saldana, Sigourney Weaver, Michelle Rodriguez, Giovanni Ribisi, Joel David Moore, CCH Pounder, Peter Mensah, Laz Alonso, Wes Studi, Stephen Lang, Matt Gerald .



    código:
    General
    Complete name :     files/Avatar.1080p.Latino.Ingles.CadagotoHD.mkv
    Format :     Matroska
    File size :     20.1 GiB
    Duration :     2h 41mn
    Overall bit rate :     17.8 Mbps
    Encoded date :     UTC 2010-05-25 01:09:21
    Writing application :     mkvmerge v3.3.0 ('Language') built on Mar 24 2010 14:59:24
    Writing library :     libebml v0.8.0 + libmatroska v0.9.0
    Cover :     Yes / Yes
    
    Video
    ID :     1
    Format :     AVC
    Format/Info :     Advanced Video Codec
    Format profile :     High@L4.1
    Format settings, CABAC :     Yes
    Format settings, ReFrames :     4 frames
    Muxing mode :     Container profile=Unknown@4.1
    Codec ID :     V_MPEG4/ISO/AVC
    Duration :     2h 41mn
    Bit rate :     15.9 Mbps
    Width :     1 920 pixels
    Height :     1 080 pixels
    Display aspect ratio :     16:9
    Frame rate :     23.976 fps
    Color space :     YUV
    Chroma subsampling :     4:2:0
    Bit depth :     8 bits
    Scan type :     Progressive
    Bits/(Pixel*Frame) :     0.319
    Stream size :     17.5 GiB (87%)
    Title :     D-Z0N3 HD - High@L4.1 - 15,9 Mbps - 1920*1080px
    Language :     English
    
    Audio #1
    ID :     2
    Format :     DTS
    Format/Info :     Digital Theater Systems
    Codec ID :     A_DTS
    Duration :     2h 41mn
    Bit rate mode :     Constant
    Bit rate :     1 510 Kbps
    Channel(s) :     6 channels
    Channel positions :     Front: L C R, Side: L R, LFE
    Sampling rate :     48.0 KHz
    Bit depth :     24 bits
    Stream size :     1.71 GiB (9%)
    Title :     D-Z0N3 HD - DTS HD MA CORE - DTS 5.1 1,5 Mbps
    Language :     English
    
    Audio #2
    ID :     3
    Format :     AC-3
    Format/Info :     Audio Coding 3
    Mode extension :     CM (complete main)
    Codec ID :     A_AC3
    Duration :     2h 41mn
    Bit rate mode :     Constant
    Bit rate :     384 Kbps
    Channel(s) :     6 channels
    Channel positions :     Front: L C R, Side: L R, LFE
    Sampling rate :     48.0 KHz
    Bit depth :     16 bits
    Stream size :     444 MiB (2%)
    Language :     Spanish
    
    Text
    ID :     4
    Format :     UTF-8
    Codec ID :     S_TEXT/UTF8
    Codec ID/Info :     UTF-8 Plain Text
    Language :     Spanish

    -
















    ¡Importan Para descargar de Linksave deben tener abierto Jdownloader, y debe tener instalado el complemento Click 'n Load.





    Pueden Alternar Las Descargas De Los Servidores, Son Intercambiables !


    BitShare Links De 800 Mb Intercambiables!



    [Solo usuarios registrados a DowntWarez.Com puede ver los links. ]
    [Solo usuarios registrados a DowntWarez.Com puede ver los links. ]




    FreakShare Links De 800 Mb Intercambiables!



    [Solo usuarios registrados a DowntWarez.Com puede ver los links. ]
    [Solo usuarios registrados a DowntWarez.Com puede ver los links. ]




    .
    CadagotoHD




    .
    Si Los Links No Estan On-Line,avisame Asi Tratare De Reponerlos!

    Aportar Toma Buen Tiempo,Resubir Mucho Mas ,Agradecer No Cuesta Nada !







  2. #2
    Mini User
    Fecha de ingreso
    27 ago, 11
    Mensajes
    3
    Poder de reputación
    0
    Re: Descargar Avatar 2009 BluRay 1080p Mkv Audio Español Latino 5.1/Ingles(Dts) Subs Español 20 GB GRATIS
    te pasastes,buen aporte, muchas gracias, hace tiempo que queria ver la pela.

  3. #3
    Mini User
    Fecha de ingreso
    27 ago, 11
    Mensajes
    3
    Poder de reputación
    0
    Re: Descargar Avatar 2009 BluRay 1080p Mkv Audio Español Latino 5.1/Ingles(Dts) Subs Español 20 GB GRATIS
    garcias

Temas similares

  1. Captain Audio - Lights, Camera, Action (Extreme Movie SFX)
    Por Dj$oda en el foro Librerias, Samples & fx
    Respuestas: 8
    Último mensaje: 06/09/2010, 02:35
  2. Captain Audio - Click, Beep & Zing (Sounds for Your Computer)
    Por Dj$oda en el foro Librerias, Samples & fx
    Respuestas: 5
    Último mensaje: 07/02/2010, 12:47
  3. Captain Audio - Movie Monsters & Cinema Creatures
    Por Dj$oda en el foro Librerias, Samples & fx
    Respuestas: 8
    Último mensaje: 07/12/2009, 10:03
  4. Captain Audio - DJ FX (The Audio Toolkit for DJs)
    Por Dj$oda en el foro Librerias, Samples & fx
    Respuestas: 15
    Último mensaje: 06/12/2009, 13:38
  5. Captain Audio - He Shoots, He Scores (The Sounds of Sports)
    Por Dj$oda en el foro Librerias, Samples & fx
    Respuestas: 6
    Último mensaje: 01/11/2008, 17:24

Etiquetas para este tema

Permisos de Publicación

  • No puedes crear nuevos temas
  • No puedes responder temas
  • No puedes subir archivos adjuntos
  • No puedes editar tus mensajes
  •