Resultados 1 al 2 de 2
  1. #1
    Usuario Dw Avatar de EtsiGabeHD
    Fecha de ingreso
    26 may, 11
    Mensajes
    38
    Poder de reputación
    7
    Linkin Park - Live From Madison Square Garden 2011 1080i-TS HDTV[Linsave]
    Linkin Park - Live From Madison Square Garden 2011 1080i-TS HDTV




    Linkin Park - Live From Madison Square Garden 2011 1080i-TS HDTV

    Recorded live at NYC,Madison Square Garden, February 2011

    Tracklist
    01. The Requiem
    02. Faint
    03. Lying From You
    04. Given Up
    05. What I�ve Done
    06. No More Sorrow
    07. From the Inside (not broadcasted)
    08. Jornada del Muerto
    09. Waiting For The End
    10. Blackout
    11. Numb
    12. The Radiance
    13. Breaking the Habit (not broadcasted)
    14. Iridescent
    15. Fallout
    16. The Catalyst
    17. Shadow of the Day
    18. In The End
    19. Bleed It Out
    20. Empty Spaces
    21. When They Come For Me
    22. Papercut
    23. New Divide
    24. One Step Closer

    General
    Format : MPEG-TS
    File size : 7.82 GiB
    Duration : 1h 25mn
    Overall bit rate : 13.0 Mbps

    Video
    ID : 224 (0xE0)
    Menu ID : 1 (0x1)
    Format : MPEG Video
    Format version : Version 2
    Format profile : Main@High
    Format settings, BVOP : Yes
    Format settings, Matrix : Default
    Codec ID : 2
    Duration : 1h 25mn
    Bit rate mode : Variable
    Bit rate : 12.0 Mbps
    Nominal bit rate : 65.0 Mbps
    Width : 1 920 pixels
    Height : 1 080 pixels
    Display aspect ratio : 16:9
    Frame rate : 29.970 fps
    Color space : YUV
    Chroma subsampling : 4:2:0
    Bit depth : 8 bits
    Scan type : Interlaced
    Scan order : Top Field First
    Compression mode : Lossy
    Bits/(Pixel*Frame) : 0.193
    Stream size : 7.20 GiB (92%)

    Audio
    ID : 128 (0x80)
    Menu ID : 1 (0x1)
    Format : AC-3
    Format/Info : Audio Coding 3
    Mode extension : CM (complete main)
    Codec ID : 129
    Duration : 1h 25mn
    Bit rate mode : Constant
    Bit rate : 384 Kbps
    Channel(s) : 6 channels
    Channel positions : Front: L C R, Side: L R, LFE
    Sampling rate : 48.0 KHz
    Bit depth : 16 bits
    Compression mode : Lossy
    Stream size : 236 MiB (3%)
    Language : English

    Archivos: 80 Archivos (100MB)
    Archivos de recuperación: Si
    Compresión: Winrar x32
    Servidor: Fileserve, Megaupload,Duckload,Filesonic,Netload
    Enlaces Intercambiables : Si

    Capturas :






    Contenido Oculto, debes [Solo usuarios registrados a DowntWarez.Com puede ver los links. ] para poder ver lo que hay dentro :)




    Contenido Oculto, debes [Solo usuarios registrados a DowntWarez.Com puede ver los links. ] para poder ver lo que hay dentro :)





    Contenido Oculto, debes [Solo usuarios registrados a DowntWarez.Com puede ver los links. ] para poder ver lo que hay dentro :)



    Contenido Oculto, debes [Solo usuarios registrados a DowntWarez.Com puede ver los links. ] para poder ver lo que hay dentro :)



    Contenido Oculto, debes [Solo usuarios registrados a DowntWarez.Com puede ver los links. ] para poder ver lo que hay dentro :)

  2. #2
    Mini User Avatar de Rockero2325
    Fecha de ingreso
    23 nov, 11
    Mensajes
    16
    Poder de reputación
    0
    Re: Linkin Park - Live From Madison Square Garden 2011 1080i-TS HDTV[Linsave]
    gracias por el aporte pero ami me gustaria este concierto en dvd !!

Temas similares

  1. Eminem - Live From Comerica Park 2011
    Por djlancelot en el foro Hip-hop
    Respuestas: 1
    Último mensaje: 01/02/2011, 12:59

Etiquetas para este tema

Permisos de Publicación

  • No puedes crear nuevos temas
  • No puedes responder temas
  • No puedes subir archivos adjuntos
  • No puedes editar tus mensajes
  •