TÍTULO: Passion Play
AÑO: 2010
PAÍS: Estados Unidos
DIRECTOR: Mitch Glazer
GUIÓN: Mitch Glazer
MÚSICA: Dickon Hinchliffe
FOTOGRAFÍA: Christopher Doyle
PRODUCTORA: Annapurna Productions / Fixed Point Films
GÉNERO: Thriller. Drama. Cine negro | Años 50. Cine independiente USA
REPARTO: Megan Fox, Mickey Rourke, Bill Murray, Rhys Ifans, Rory Cochrane, Kelly Lynch, Chris Browning, Bud Cort, Lora Cunningham, Liezl Carstens, Meggie Maddock, Armin Amiri

Sinopsis:


Ambientada en los años 50, el film se antoja como un thriller personal, donde Mickey Rourke da vida a un trompetista anulado por los muchos problemas que arrastra, que encuentra su salvación al cruzársele en su vida un ángel (Megan Fox) a quien arrancará de las manos de un peligroso gángster.

Capturas:



Info.Tecnica:

código:
Format : AVI
Format/Info : Audio Video Interleave
File size : 701 MiB
Duration : 1h 34mn
Overall bit rate : 1 040 Kbps
Writing library : VirtualDub build 33848/release

Video
ID : 0
Format : MPEG-4 Visual
Format profile : Advanced Simple@L5
Format settings, BVOP : Yes
Format settings, QPel : No
Format settings, GMC : No warppoints
Format settings, Matrix : Default (H.263)
Codec ID : XVID
Codec ID/Hint : XviD
Duration : 1h 34mn
Bit rate : 903 Kbps
Width : 672 pixels
Height : 288 pixels
Display aspect ratio : 2.35:1
Frame rate : 23.976 fps
Color space : YUV
Chroma subsampling : 4:2:0
Bit depth : 8 bits
Scan type : Progressive
Compression mode : Lossy
Bits/(Pixel*Frame) : 0.195
Stream size : 609 MiB (87%)
Writing library : XviD 63

Audio
ID : 1
Format : MPEG Audio
Format version : Version 1
Format profile : Layer 3
Mode : Joint stereo
Mode extension : MS Stereo
Codec ID : 55
Codec ID/Hint : MP3
Duration : 1h 34mn
Bit rate mode : Constant
Bit rate : 128 Kbps
Channel(s) : 2 channels
Sampling rate : 48.0 KHz
Compression mode : Lossy
Stream size : 86.3 MiB (12%)
Alignment : Split accross interleaves
Interleave, duration : 42 ms (1.00 video frame)
Interleave, preload duration : 500 ms
Writing library : LAME3.97
Drama | Thriller

Descarga Aqui:

Contenido Oculto, debes [Solo usuarios registrados a DowntWarez.Com puede ver los links. ] para poder ver lo que hay dentro :)


sin pass....